<?xml version="1.0" standalone="no"?>
<!DOCTYPE svg PUBLIC "-//W3C//DTD SVG 1.1//EN" "http://www.w3.org/Graphics/SVG/1.1/DTD/svg11.dtd">
<svg xmlns="http://www.w3.org/2000/svg">
<defs >
<font id="Merriweather" horiz-adv-x="1364" ><font-face
    font-family="Merriweather"
    units-per-em="2048"
    panose-1="0 0 5 0 0 0 0 0 0 0"
    ascent="2014"
    descent="-560"
    alphabetic="0" />
<glyph unicode=" " glyph-name="space" horiz-adv-x="616" />
<glyph unicode="!" glyph-name="exclam" horiz-adv-x="727" d="M483 1784L423 509H284L220 1784H483ZM445 274T481 236T517 138Q517 90 495 55T434 0T350 -20Q313 -20 281 -4T229 44T209 116Q209 160 232 196T294 253T375 274Q445 274 481 236Z" />
<glyph unicode="&quot;" glyph-name="quotedbl" horiz-adv-x="1244" d="M1005 1692L957 938H816L770 1692H1005ZM475 1692L427 938H286L240 1692H475Z" />
<glyph unicode="#" glyph-name="numbersign" horiz-adv-x="1523" d="M166 361V494H399L436 896H200V1029H451L482 1373H659L628 1029H955L988 1373H1164L1133 1029H1370V896H1118L1082 494H1326V361H1068L1035 0H858L890 361H561L527 0H347L383 361H166ZM941 896H613L575
494H900L941 896Z" />
<glyph unicode="$" glyph-name="dollar" horiz-adv-x="1370" d="M744 -258H588L590 -20Q474 -11 365 16T203 68L219 416H356L404 172Q490 93 669 93Q811 93 884 155T957 341Q957 415 910 474T790 578T586 693Q457 760 379 821T258 965T215 1162Q215 1260 267 1338T410
1467T615 1534V1762H773V1538Q945 1527 1099 1462L1087 1135H955L902 1368Q839 1426 711 1426Q592 1426 514 1372T435 1210Q435 1137 474 1082T572 986T729 891L755 876Q921 781 1003 723T1136 585T1187 392Q1187 281 1137 193T987 49T746 -19L744 -258Z" />
<glyph unicode="%" glyph-name="percent" horiz-adv-x="2110" d="M1466 1538L810 0H642L1298 1538H1466ZM108 1208T162 1306T308 1456T509 1508Q632 1508 714 1453T836 1303T875 1086Q875 953 820 856T673 707T474 656Q363 656 280 712T153 864T108 1074Q108 1208
162 1306ZM671 1216T627 1303T496 1391Q406 1391 360 1308T313 1085Q313 1000 332 929T391 816T488 773Q578 773 625 855T672 1077Q671 1216 627 1303ZM1757 893T1839 838T1961 687T2001 471Q2001 338 1946 241T1798 92T1599 41Q1488 41 1405 97T1278 249T1233
459Q1233 593 1287 691T1434 841T1634 893Q1757 893 1839 838ZM1703 158T1750 240T1797 462Q1797 601 1753 688T1621 776Q1531 776 1485 693T1438 470Q1438 385 1457 314T1516 201T1613 158Q1703 158 1750 240Z" />
<glyph unicode="&amp;" glyph-name="ampersand" horiz-adv-x="1551" d="M1515 842V719L1354 694Q1355 556 1310 435T1191 233Q1254 175 1312 144T1445 106V10Q1426 -1 1377 -8T1294 -15Q1221 -14 1164 10T1033 95Q956 35 857 8T667 -19Q501 -19 378 26T188 159T121
372Q121 499 203 589T420 756Q344 855 295 966T246 1182Q246 1279 299 1361T446 1491T655 1540Q774 1540 856 1499T979 1392T1020 1256Q1020 1142 977 1061T868 925T681 787Q760 689 871 563T1054 367L1099 323Q1146 389 1168 470T1190 635Q1190 666 1187 694L1026
719V842H1515ZM693 931T737 985T802 1102T823 1247Q823 1321 787 1380T651 1440Q599 1440 556 1410T489 1328T464 1210Q464 1108 507 1026T615 867Q693 931 737 985ZM781 324T490 672Q419 611 379 546T339 399Q339 319 377 252T493 145T682 105Q747 105 815 123T937
178Q781 324 490 672Z" />
<glyph unicode="&apos;" glyph-name="quotesingle" horiz-adv-x="714" d="M475 1692L427 938H286L240 1692H475Z" />
<glyph unicode="(" glyph-name="parenleft" horiz-adv-x="880" d="M736 1633Q676 1595 589 1480T429 1170T351 724L350 681Q350 414 421 204T584 -133T743 -308L642 -377Q560 -328 445 -205T233 146T135 685Q135 956 230 1172T445 1520T642 1697L736 1633Z" />
<glyph unicode=")" glyph-name="parenright" horiz-adv-x="880" d="M143 -313Q203 -275 290 -160T450 150T528 596L529 639Q529 906 458 1116T295 1453T136 1628L237 1697Q319 1648 434 1525T646 1174T744 635Q744 364 649 148T434 -200T237 -377L143 -313Z" />
<glyph unicode="*" glyph-name="asterisk" horiz-adv-x="1314" d="M430 1106L599 1159L430 1208L148 1330L249 1507L496 1325L628 1206L585 1377L546 1684H754L722 1379L684 1209L811 1329L1058 1515L1161 1340L884 1213L712 1160L884 1111L1166 992L1061 809L818
991L684 1110L728 939L768 634L559 633L590 939L628 1112L501 988L256 802L152 979L430 1106Z" />
<glyph unicode="+" glyph-name="plus" horiz-adv-x="1353" d="M425 695L599 683L592 850V1078H761V850L752 683L899 695H1138V528H899L752 535L761 371V131H592V371L599 535L425 528H215V695H425Z" />
<glyph unicode="," glyph-name="comma" horiz-adv-x="687" d="M431 304T476 236T521 50Q521 -63 483 -167T387 -346T272 -451H270L203 -396V-372Q254 -331 292 -264T330 -98Q330 -49 315 -21T269 40Q241 70 227 97T212 168Q212 208 230 239T278 287T344 304H356Q431
304 476 236Z" />
<glyph unicode="-" glyph-name="hyphen" horiz-adv-x="1310" d="M1080 697V535H230V697H1080Z" />
<glyph unicode="." glyph-name="period" horiz-adv-x="597" d="M145 160T168 196T230 254T310 275Q379 275 415 236T452 139Q452 92 430 56T369 0T285 -20Q248 -20 216 -3T165 45T145 116Q145 160 168 196Z" />
<glyph unicode="/" glyph-name="slash" horiz-adv-x="882" d="M812 1599L262 -363H70L620 1599H812Z" />
<glyph unicode="0" glyph-name="zero" horiz-adv-x="1307" d="M124 844T199 990T400 1214T676 1291Q942 1291 1063 1121T1185 656Q1185 455 1114 302T917 64T638 -21Q460 -21 344 67T175 305T123 646Q124 844 199 990ZM938 897T873 1038T657 1179Q504 1179 436
1047T368 660Q368 402 437 247T655 91Q808 91 873 228T938 633Q938 897 873 1038Z" />
<glyph unicode="1" glyph-name="one" horiz-adv-x="887" d="M372 134V1038Q331 1022 244 1003T104 979L79 1102Q185 1125 290 1176T472 1292H473L604 1271V134L836 109V0H118V109L372 134Z" />
<glyph unicode="2" glyph-name="two" horiz-adv-x="1223" d="M275 198T430 334T677 616T769 889Q769 1000 702 1064T518 1128Q402 1128 319 1083T166 973L97 1071Q142 1122 216 1173T388 1258T591 1293Q734 1293 831 1242T976 1106T1024 922Q1024 786 934 645T693
374T358 134L970 181L1041 338L1155 314L1105 0H122L88 92Q275 198 430 334Z" />
<glyph unicode="3" glyph-name="three" horiz-adv-x="1141" d="M436 -200T550 -152T725 -19T787 168Q787 305 708 380T457 462Q435 457 392 447T326 432L288 550Q363 561 451 595Q576 649 650 738T725 930Q725 1040 660 1089T492 1138Q399 1138 314 1108T166 1031L108
1129Q143 1163 213 1202T375 1268T558 1295Q744 1295 858 1215T972 967Q972 870 920 782T780 629T590 528Q609 530 646 530Q768 530 858 485T997 363T1046 191Q1046 41 957 -77T705 -262T324 -329Q278 -329 219 -322T118 -304V-180Q151 -189 197 -194T284 -200Q436
-200 550 -152Z" />
<glyph unicode="4" glyph-name="four" horiz-adv-x="1317" d="M191 331T362 695T682 1395H736L916 1296L360 254L276 127L801 157L808 536L1003 554V168L1267 184V0H1003V-332H801V0H124L66 100Q191 331 362 695Z" />
<glyph unicode="5" glyph-name="five" horiz-adv-x="1209" d="M439 -216T557 -158T744 4T814 242Q814 561 510 561Q449 561 375 542T243 492L185 535L275 1271H849L870 1310H1007L968 1083H435L355 627Q415 661 497 683T659 705Q856 705 963 598T1071 275Q1071
116 976 -24T710 -248T323 -332Q244 -332 180 -317L181 -210Q249 -216 299 -216Q439 -216 557 -158Z" />
<glyph unicode="6" glyph-name="six" horiz-adv-x="1353" d="M154 855T278 1074T597 1434T999 1609L1048 1515Q889 1464 765 1367T559 1145T437 877Q491 931 575 967T770 1004Q910 1004 1007 948T1155 788T1205 541Q1205 392 1143 263T963 55T682 -23Q515 -23
396 60T215 284T154 597Q154 855 278 1074ZM405 703T403 652L402 604Q402 374 470 231T695 88Q784 88 844 146T934 295T964 484Q964 684 894 776T705 869Q636 869 577 850T475 802T410 744Q405 703 403 652Z" />
<glyph unicode="7" glyph-name="seven" horiz-adv-x="1168" d="M290 1102L207 854L73 879L117 1271H1046L1092 1215L542 -351L295 -284Q408 -46 519 218T776 844L884 1109L290 1102Z" />
<glyph unicode="8" glyph-name="eight" horiz-adv-x="1301" d="M332 847T264 942T196 1176Q196 1292 260 1377T430 1505T656 1549Q787 1549 887 1508T1042 1391T1098 1214Q1098 1105 1029 1002T835 823Q939 763 1012 705T1131 568T1177 391Q1177 269 1106 175T915
29T656 -22Q526 -22 409 19T216 147T141 366Q141 487 219 592T453 770Q332 847 264 942ZM819 926T864 1002T909 1159Q909 1298 839 1372T649 1447Q573 1447 515 1421T426 1345T394 1228Q394 1153 440 1093T555 987T742 876Q819 926 864 1002ZM456 667T404 587T351
411Q351 315 387 242T494 129T666 88Q742 88 806 120T909 210T947 341Q947 416 905 473T799 572T624 673L541 718Q456 667 404 587Z" />
<glyph unicode="9" glyph-name="nine" horiz-adv-x="1355" d="M1212 420T1099 199T802 -161T413 -336L363 -241Q593 -164 734 2T929 387Q875 336 795 302T622 267Q482 267 377 327T214 498T157 754Q157 898 220 1021T404 1219T687 1293Q861 1293 979 1214T1154
997T1212 686Q1212 420 1099 199ZM961 576T962 633L963 685Q963 1181 673 1181Q583 1181 521 1125T428 980T397 800Q397 593 469 498T662 402Q759 402 837 437T953 517Q961 576 962 633Z" />
<glyph unicode=":" glyph-name="colon" horiz-adv-x="706" d="M199 1005T222 1041T284 1099T364 1120Q433 1120 469 1081T506 984Q506 937 484 901T423 845T339 825Q302 825 270 842T219 890T199 961Q199 1005 222 1041ZM199 160T222 196T284 254T364 275Q433
275 469 236T506 139Q506 92 484 56T423 0T339 -20Q302 -20 270 -3T219 45T199 116Q199 160 222 196Z" />
<glyph unicode=";" glyph-name="semicolon" horiz-adv-x="706" d="M432 304T477 236T522 50Q522 -63 484 -167T388 -346T273 -451H271L204 -396V-372Q255 -331 293 -264T331 -98Q331 -49 316 -21T270 40Q242 70 228 97T213 168Q213 208 231 239T279 287T345 304H357Q432
304 477 236ZM201 1005T224 1041T286 1099T366 1120Q435 1120 471 1081T508 984Q508 937 486 901T425 845T341 825Q304 825 272 842T221 890T201 961Q201 1005 224 1041Z" />
<glyph unicode="&lt;" glyph-name="less" horiz-adv-x="1370" d="M1136 1178V983L378 616L1136 248V55L168 553V679L1136 1178Z" />
<glyph unicode="=" glyph-name="equal" horiz-adv-x="1337" d="M1130 970V811H208V970H1130ZM1130 420V261H208V420H1130Z" />
<glyph unicode="&gt;" glyph-name="greater" horiz-adv-x="1370" d="M1202 553L234 55V248L992 616L234 983V1178L1202 679V553Z" />
<glyph unicode="?" glyph-name="question" horiz-adv-x="994" d="M240 849T275 894T362 972T498 1048Q565 1082 605 1105T678 1159T727 1224V1252Q726 1362 674 1462T519 1625T270 1689Q206 1689 141 1676L106 1807Q123 1820 198 1831T348 1843Q547 1843 678 1772T871
1586T932 1343Q932 1249 887 1175T779 1050T619 935Q546 888 507 857T446 792Q443 779 443 745Q446 630 469 519L340 487Q318 509 296 565T259 685T240 790Q240 849 275 894ZM470 251T485 251Q530 251 560 226T601 159Q604 144 604 129Q604 81 571 48T488 6Q475
2 458 2Q418 2 385 26T341 94Q339 108 339 115Q339 164 373 201T455 248Q470 251 485 251Z" />
<glyph unicode="@" glyph-name="at" horiz-adv-x="2203" d="M1476 1543T1637 1459T1889 1206T1980 793Q1980 540 1881 353T1646 67T1413 -32Q1358 -32 1318 16T1272 147Q1270 169 1270 185Q1270 270 1298 437Q1251 311 1188 203T1050 28T898 -39Q828 -39 763 11T656
155T614 373Q614 523 680 681T866 943T1142 1048Q1199 1048 1261 1035T1375 993Q1384 1019 1393 1032T1420 1042Q1451 1032 1476 1023Q1525 1005 1545 999Q1517 872 1486 680T1443 353Q1439 313 1439 272Q1439 206 1450 169T1478 131Q1553 131 1636 209T1775 428T1832
742Q1832 971 1743 1119T1507 1334T1185 1401Q962 1401 771 1279T464 930T349 404Q349 154 434 -20T664 -281T991 -369Q1100 -369 1221 -342T1400 -276L1440 -366Q1361 -432 1230 -472T954 -513Q713 -513 540 -407T277 -104T186 361Q186 704 335 974T732 1393T1262
1543Q1476 1543 1637 1459ZM991 153T1050 218T1165 389T1263 610Q1305 735 1318 825Q1290 854 1216 876T1091 899Q1006 899 943 832T847 655T813 424Q813 321 843 237T945 153Q991 153 1050 218Z" />
<glyph unicode="A" glyph-name="A" horiz-adv-x="1417" d="M93 133L586 1534H824L1321 133L1448 109V0H899V109L1062 133L967 425H379L288 133L459 109V0H-33L-34 109L93 133ZM926 552L712 1209L668 1377L624 1207L419 552H926Z" />
<glyph unicode="B" glyph-name="B" horiz-adv-x="1401" d="M264 133V1386L99 1411V1522H371Q439 1522 545 1530Q627 1537 686 1537Q967 1537 1093 1450T1220 1192Q1220 1097 1184 1019T1078 888T914 816Q1039 819 1132 775T1277 648T1328 454Q1328 248 1183 118T701
-12Q664 -12 623 -10T565 -7Q444 0 373 0H96V109L264 133ZM549 857T703 857Q986 857 986 1150Q986 1244 956 1303T858 1392T674 1422Q602 1422 554 1417T498 1410V861Q549 857 703 857ZM521 112T573 109T695 105Q895 105 984 186T1074 421Q1074 532 1039 600T929
699T730 731H633Q528 731 497 729V123Q521 112 573 109Z" />
<glyph unicode="C" glyph-name="C" horiz-adv-x="1335" d="M66 998T163 1174T430 1444T808 1538Q904 1538 993 1524T1196 1487L1250 1476L1231 1102H1082L1026 1357Q1005 1385 941 1401T773 1418Q645 1418 547 1345T393 1130T337 786Q337 600 386 444T539 192T798
96Q959 96 1029 170L1116 381L1258 362L1214 56Q1187 54 1162 48T1097 27Q1029 3 967 -10T814 -23Q576 -23 408 70T153 340T66 762Q66 998 163 1174Z" />
<glyph unicode="D" glyph-name="D" horiz-adv-x="1561" d="M264 133V1385L106 1411V1522H373Q423 1522 478 1525T551 1529Q669 1537 733 1537Q1116 1537 1302 1346T1489 809Q1489 566 1394 379T1128 88T733 -16Q682 -16 562 -8Q438 0 383 0H95V109L264 133ZM540
112T585 108T688 104H734Q882 107 994 182T1170 405T1234 766Q1234 1089 1096 1254T680 1419Q619 1419 529 1409L498 1406V123Q540 112 585 108Z" />
<glyph unicode="E" glyph-name="E" horiz-adv-x="1339" d="M264 133V1386L99 1411V1522H1141L1169 1205H1040L978 1395L499 1408V843L824 849L854 1015H983V541H854L825 717L499 722V124L1049 146L1162 397L1290 359L1231 0H96V109L264 133Z" />
<glyph unicode="F" glyph-name="F" horiz-adv-x="1270" d="M264 133V1386L96 1411V1522H1188L1209 1172H1064L998 1394L499 1408V825L847 829L887 997H1010V520H887L847 691L499 700V133L803 109V0H99V109L264 133Z" />
<glyph unicode="G" glyph-name="G" horiz-adv-x="1522" d="M87 985T189 1166T468 1443T866 1539Q1004 1539 1123 1520T1346 1475L1326 1120H1172L1118 1357Q1093 1382 1029 1402T850 1422Q704 1422 593 1351T420 1138T357 792Q357 605 409 447T570 193T837 96Q927
96 1006 117T1128 181V619L883 642V771H1480V642L1363 621V82Q1337 81 1304 73T1220 48Q1114 15 1022 -4T817 -23Q592 -23 427 75T175 347T87 738Q87 985 189 1166Z" />
<glyph unicode="H" glyph-name="H" horiz-adv-x="1700" d="M265 133V1385L106 1411V1522H672V1411L500 1386V846H1200V1386L1036 1411V1522H1595V1411L1435 1386V132L1595 109V0H1037V109L1200 132V714H500V133L672 109V0H100V109L265 133Z" />
<glyph unicode="I" glyph-name="I" horiz-adv-x="827" d="M295 133V1385L112 1411V1522H714V1411L531 1386V133L717 106V0H112V109L295 133Z" />
<glyph unicode="J" glyph-name="J" horiz-adv-x="780" d="M37 -263T88 -226T182 -131T247 -5Q271 77 280 178T289 485V1385L101 1411V1522H703V1411L522 1385V565V450Q522 301 518 208T498 46Q473 -70 403 -156T240 -294T45 -368L-12 -276Q37 -263 88 -226Z" />
<glyph unicode="K" glyph-name="K" horiz-adv-x="1489" d="M1147 0T1092 85T943 346Q863 496 807 590T700 741L501 512V132L689 108V0H97V109L266 133V1386L101 1411V1522H663V1411L501 1385V685L1079 1386L914 1411L913 1522H1423V1412L1267 1386L838 900Q906
840 987 724T1179 431Q1274 280 1324 209T1400 133L1490 108V0H1183Q1147 0 1092 85Z" />
<glyph unicode="L" glyph-name="L" horiz-adv-x="1301" d="M266 133V1386L101 1411V1522H696V1411L503 1385V132L1008 152L1130 486L1264 463L1196 0H98V109L266 133Z" />
<glyph unicode="M" glyph-name="M" horiz-adv-x="2046" d="M179 132L329 1386L115 1411V1522H661L975 605L1027 375L1072 605L1349 1522H1895V1411L1673 1385L1867 133L2046 109V0H1452V109L1629 132L1503 1040L1459 1439L1390 1165L1064 68H935L574 1053L463
1438L431 1041L350 133L547 109V0H1V109L179 132Z" />
<glyph unicode="N" glyph-name="N" horiz-adv-x="1638" d="M263 132V1385L98 1411V1522H493L1166 539L1272 341V1386L1093 1411V1522H1589V1411L1423 1385V0H1259L570 1003L414 1275V133L605 109V0H98V109L263 132Z" />
<glyph unicode="O" glyph-name="O" horiz-adv-x="1480" d="M66 986T156 1165T403 1441T758 1539Q972 1539 1119 1446T1339 1181T1413 777Q1413 538 1323 357T1073 76T713 -23Q505 -23 360 73T140 344T66 750Q66 986 156 1165ZM326 551T375 403T517 175T740 95Q867
95 959 171T1103 399T1154 776Q1154 976 1106 1121T964 1344T741 1422Q613 1422 520 1349T377 1125T326 751Q326 551 375 403Z" />
<glyph unicode="P" glyph-name="P" horiz-adv-x="1328" d="M266 132V1385L109 1411V1522H356Q410 1522 502 1528Q610 1536 709 1536Q921 1536 1046 1486T1224 1339T1277 1098Q1277 933 1201 812T991 628T683 564Q629 564 572 567T501 573V132L771 109V0H98V109L266
132ZM834 682T929 777T1025 1096Q1025 1269 941 1345T679 1421Q618 1421 556 1413Q523 1408 500 1408V691Q548 682 683 682Q834 682 929 777Z" />
<glyph unicode="Q" glyph-name="Q" horiz-adv-x="1502" d="M76 986T166 1165T413 1441T768 1539Q982 1539 1129 1446T1349 1181T1423 777Q1423 604 1375 460T1237 210T1028 45Q1090 43 1156 21T1281 -31T1433 -113Q1553 -182 1632 -216T1780 -251H1782Q1824 -251
1837 -250L1870 -360Q1838 -385 1790 -405T1658 -425H1647Q1555 -425 1476 -394T1334 -316T1185 -196Q1117 -137 1072 -103T975 -42T867 -9Q795 -23 723 -23Q515 -23 370 73T150 344T76 750Q76 986 166 1165ZM336 551T385 403T527 175T750 95Q877 95 969 171T1113
399T1164 776Q1164 976 1116 1121T974 1344T751 1422Q623 1422 530 1349T387 1125T336 751Q336 551 385 403Z" />
<glyph unicode="R" glyph-name="R" horiz-adv-x="1440" d="M264 131V1387L106 1413V1522H381Q425 1522 473 1525T535 1529Q637 1537 696 1537Q898 1537 1020 1493T1196 1361T1251 1135Q1251 1042 1216 955T1113 802T952 707Q995 682 1037 630T1114 518T1200 364Q1260
251 1296 196T1365 132L1443 108V0H1147Q1113 0 1073 71T964 292Q893 451 842 543T740 666Q541 666 498 669V131L695 109V0H96V109L264 131ZM853 784T924 868T996 1119Q996 1262 923 1341T670 1420Q594 1420 529 1411L498 1408V786Q530 783 599 783L724 784Q853
784 924 868Z" />
<glyph unicode="S" glyph-name="S" horiz-adv-x="1215" d="M134 440H273L313 184Q347 148 423 123T588 97Q737 97 812 163T888 348Q888 425 847 480T734 578T539 676Q431 725 345 782T197 930T135 1145Q135 1259 196 1348T370 1488T633 1539Q725 1539 803 1524T965
1484Q1009 1471 1036 1466L1023 1123H889L843 1366Q824 1387 763 1404T631 1422Q361 1422 361 1204Q361 1128 402 1074T511 979T712 872Q844 807 928 753T1072 616T1132 418Q1132 308 1071 207T886 41T586 -23Q478 -23 389 -4T204 47Q138 68 117 70L134 440Z" />
<glyph unicode="T" glyph-name="T" horiz-adv-x="1411" d="M585 133V1403L252 1393L177 975H32L67 1522H1333L1365 975H1222L1146 1393L826 1403V133L1109 109V0H324V109L585 133Z" />
<glyph unicode="U" glyph-name="U" horiz-adv-x="1508" d="M184 1385L40 1411V1522H598V1411L428 1385V620Q428 344 526 224T803 103Q980 103 1071 234T1162 609V1385L997 1411V1522H1476V1411L1328 1385V619Q1328 406 1257 264T1062 53T776 -16Q568 -16 438 53T246
268T184 643V1385Z" />
<glyph unicode="V" glyph-name="V" horiz-adv-x="1367" d="M-34 1411V1522H527V1411L343 1386L672 433L740 200L799 436L1102 1385L946 1411V1522H1408V1411L1276 1385L794 -15H606L93 1385L-34 1411Z" />
<glyph unicode="W" glyph-name="W" horiz-adv-x="2046" d="M-44 1411V1522H515V1411L332 1384L611 438L663 167L724 438L953 1209L897 1385L756 1411V1522H1334V1411L1142 1385L1416 438L1477 144L1530 438L1791 1384L1589 1411V1522H2087V1411L1954 1384L1541
-10H1325L1023 986L728 -10H522L90 1384L-44 1411Z" />
<glyph unicode="X" glyph-name="X" horiz-adv-x="1462" d="M187 132L611 760L192 1385L42 1411V1522H655V1411L474 1385L783 885L1089 1385L916 1411V1522H1424V1411L1264 1385L854 800L1307 132L1463 109V0H850V109L1024 133L685 673L368 132L564 109V0H12V109L187 132Z" />
<glyph unicode="Y" glyph-name="Y" horiz-adv-x="1317" d="M552 133V592L100 1384L-28 1411V1522H520V1411L365 1385L647 842L704 697L769 840L1037 1386L875 1411V1522H1348V1411L1215 1386L795 597V132L1019 109V0H333V109L552 133Z" />
<glyph unicode="Z" glyph-name="Z" horiz-adv-x="1346" d="M858 1278L970 1414L397 1392L285 1127L160 1144L204 1528H1197L1248 1432L468 255L340 117L1013 156L1126 466L1256 440L1208 0H124L65 98L858 1278Z" />
<glyph unicode="[" glyph-name="bracketleft" horiz-adv-x="873" d="M191 1520T212 1567T277 1630T401 1647Q474 1647 537 1637T690 1606V1512H393V-144H690V-239Q616 -259 546 -270T401 -281Q322 -281 278 -265T212 -201T191 -63V1429Q191 1520 212 1567Z" />
<glyph unicode="\" glyph-name="backslash" horiz-adv-x="882" d="M801 -363H609L59 1599H251L801 -363Z" />
<glyph unicode="]" glyph-name="bracketright" horiz-adv-x="873" d="M682 -63Q682 -154 661 -201T596 -264T472 -281Q397 -281 327 -270T183 -239V-144H480V1512H183V1606Q272 1626 335 1636T472 1647Q552 1647 596 1631T661 1567T682 1429V-63Z" />
<glyph unicode="^" glyph-name="asciicircum" horiz-adv-x="1363" d="M779 1531L1183 272H973L680 1308L388 272H180L579 1531H779Z" />
<glyph unicode="_" glyph-name="underscore" horiz-adv-x="1711" d="M1731 -386H-20V-250H1731V-386Z" />
<glyph unicode="`" glyph-name="grave" horiz-adv-x="681" d="M145 1814H146L476 1408L394 1334H393Q349 1350 262 1415T93 1555T-14 1675L145 1814Z" />
<glyph unicode="a" glyph-name="a" horiz-adv-x="1148" d="M755 743Q755 837 736 891T668 970T532 995Q363 995 176 900H175L125 1004Q152 1028 228 1066T402 1132T588 1161Q734 1161 817 1122T938 995T975 760V110H1097V12Q951 -23 877 -23Q835 -23 813 -16T781
12T770 79V127Q716 74 628 26T431 -23Q335 -23 257 12T132 120T85 302Q85 435 177 521T420 647T755 691V743ZM755 578Q608 578 514 545T377 456T334 331Q334 226 386 177T526 128Q573 128 639 154T755 219V578Z" />
<glyph unicode="b" glyph-name="b" horiz-adv-x="1241" d="M-5 1542V1636L332 1679H337L387 1645V1034Q446 1092 528 1130T710 1168Q832 1168 933 1109T1095 925T1156 609Q1156 433 1084 289T878 61T564 -23Q467 -23 380 -10T233 23T160 56V1522L-5 1542ZM387
157Q400 127 454 110T579 92Q677 92 751 147T868 312T910 585Q910 729 873 825T769 967T618 1013Q546 1013 485 981T387 907V157Z" />
<glyph unicode="c" glyph-name="c" horiz-adv-x="1047" d="M797 1168T961 1106L951 798H812L766 985Q752 1018 711 1034T611 1050Q523 1050 458 1002T357 857T321 618Q321 453 364 344T481 183T648 131Q735 131 808 156T934 219L977 127Q941 90 881 56T747 -1T597
-23Q428 -23 311 52T136 257T77 554Q77 725 143 864T339 1086T653 1168Q797 1168 961 1106Z" />
<glyph unicode="d" glyph-name="d" horiz-adv-x="1272" d="M85 717T156 859T361 1085T675 1168Q763 1168 856 1149V1522L655 1542V1639L1028 1679H1034L1083 1643V116H1201V12Q1136 -4 1086 -13T981 -23Q942 -23 920 -16T886 14T874 80V133Q813 66 726 22T531
-23Q408 -23 307 39T146 229T85 542Q85 717 156 859ZM856 989Q841 1014 784 1032T661 1050Q511 1050 421 931T331 558Q331 413 369 318T473 177T623 131Q696 131 757 163T856 237V989Z" />
<glyph unicode="e" glyph-name="e" horiz-adv-x="1112" d="M85 747T154 883T345 1093T622 1168Q814 1168 919 1063T1031 760V724Q1031 619 1019 564H326Q330 417 376 320T497 177T666 131Q748 131 834 159T970 225L1012 129Q974 90 908 55T760 -1T598 -23Q430
-23 315 51T142 259T85 571Q85 747 154 883ZM791 680Q795 716 795 766Q794 893 742 970T578 1047Q466 1047 401 964T326 680H791Z" />
<glyph unicode="f" glyph-name="f" horiz-adv-x="828" d="M258 127V991H67V1090L258 1135V1230Q258 1357 327 1464T506 1633T735 1696Q779 1696 804 1692T855 1680V1456Q834 1474 780 1491T661 1508Q594 1508 557 1491T503 1431T486 1308L487 1135H762V991H487V126L704
108V0H89V108L258 127Z" />
<glyph unicode="g" glyph-name="g" horiz-adv-x="1253" d="M581 405Q499 405 428 422Q400 397 384 365T368 298Q368 248 391 222T462 185T593 175H811Q1202 175 1202 -125Q1202 -241 1120 -339T899 -494T603 -552H602Q334 -552 213 -471T92 -240Q92 -147 146 -72T278
43Q181 98 181 211Q181 286 224 349T337 452Q237 498 184 582T130 780Q130 898 197 986T373 1120T606 1168H607Q715 1168 801 1144T946 1071Q976 1106 1036 1138T1177 1170H1231V976H1021Q1056 903 1056 815Q1056 695 994 602T824 457T582 405H581ZM593 1051Q485
1051 426 993T366 801Q366 675 422 600T603 524H604Q718 524 769 592T821 791Q821 925 766 988T594 1051H593ZM316 -71T316 -181Q316 -301 387 -363T620 -425H622Q712 -425 794 -397T927 -314T978 -183Q978 -118 959 -81T887 -24T736 -5H535Q453 -5 380 8Q316 -71
316 -181Z" />
<glyph unicode="h" glyph-name="h" horiz-adv-x="1356" d="M209 125V1521L44 1541V1636L383 1679H388L436 1645L437 1181L428 1002Q496 1062 606 1112T832 1163Q960 1163 1031 1114T1131 964T1160 691V126L1304 109V0H801V108L932 125V692Q932 808 917 874T857
974T728 1008Q656 1008 577 979T438 904V126L580 109V0H89V109L209 125Z" />
<glyph unicode="i" glyph-name="i" horiz-adv-x="685" d="M240 126V964L95 1005V1123L413 1164H418L469 1125V126L629 109V0H78V109L240 126ZM199 1557T238 1604T349 1651H350Q392 1651 423 1632T470 1580T487 1512Q487 1442 447 1397T331 1352H330Q272 1352 236
1391T199 1489Q199 1557 238 1604Z" />
<glyph unicode="j" glyph-name="j" horiz-adv-x="656" d="M90 998L92 1123L409 1164H414L464 1125V18Q464 -144 416 -256T289 -428T113 -498Q108 -499 90 -499Q63 -499 33 -497T-5 -490L-16 -382Q-1 -384 31 -378T93 -361Q174 -331 206 -223T238 60L236 957L90
998ZM194 1557T233 1604T344 1651H345Q387 1651 418 1632T465 1580T482 1512Q482 1442 442 1397T326 1352H325Q267 1352 231 1391T194 1489Q194 1557 233 1604Z" />
<glyph unicode="k" glyph-name="k" horiz-adv-x="1242" d="M208 126V1521L52 1541V1636L385 1679H388L436 1645V655L432 541L878 1006L717 1035V1137H1226V1035L1069 1001L778 717L1170 126L1290 109V0H789V108L909 127L627 584L431 390L436 284V126L580 108V0H77V109L208
126Z" />
<glyph unicode="l" glyph-name="l" horiz-adv-x="688" d="M235 126V1521L71 1541V1636L412 1679H414L463 1645V126L633 109V0H73V109L235 126Z" />
<glyph unicode="m" glyph-name="m" horiz-adv-x="2054" d="M233 125V964L90 1004V1124L385 1164H390L438 1125V1044L436 998Q481 1039 552 1077T703 1139T848 1163Q958 1163 1025 1126T1127 1011Q1166 1045 1234 1080T1381 1139T1526 1163Q1656 1163 1728 1115T1829
966T1858 694V125L2001 108V0H1511V108L1629 126V687Q1629 804 1612 872T1548 974T1413 1009Q1352 1009 1280 981T1156 916Q1174 830 1174 691V126L1320 108V0H812V108L945 126V692Q945 809 930 875T872 974T744 1008Q674 1008 597 978T462 904V126L596 108V0H108V108L233
125Z" />
<glyph unicode="n" glyph-name="n" horiz-adv-x="1375" d="M233 126V964L90 1004V1124L386 1164H391L438 1125V1044L437 998Q483 1039 552 1077T701 1139T852 1163Q982 1163 1053 1115T1152 965T1180 691V126L1324 109V0H822V109L950 126V692Q950 808 935 874T876
974T749 1008Q677 1008 599 977T462 902V126L600 109V0H102V109L233 126Z" />
<glyph unicode="o" glyph-name="o" horiz-adv-x="1218" d="M795 1168T911 1091T1083 880T1139 572Q1139 387 1063 252T862 47T596 -23Q422 -23 307 54T135 265T79 573Q79 756 155 891T356 1097T621 1168Q795 1168 911 1091ZM886 779T820 911T609 1044Q471 1044
401 931T331 591Q331 366 398 234T609 101Q886 101 886 554Q886 779 820 911Z" />
<glyph unicode="p" glyph-name="p" horiz-adv-x="1294" d="M581 -23T527 -16T436 2L442 -168V-366L647 -388V-496H66V-388L215 -365V964L72 1004V1124L367 1164H372L417 1125V1011Q477 1077 565 1122T764 1168Q886 1168 987 1109T1149 924T1210 609Q1210 434 1139
290T935 62T626 -23Q581 -23 527 -16ZM442 154Q456 129 510 110T633 91Q730 91 804 142T922 305T965 589Q965 734 927 829T822 969T671 1015Q600 1015 539 986T442 918V154Z" />
<glyph unicode="q" glyph-name="q" horiz-adv-x="1247" d="M85 721T156 862T361 1086T675 1168Q738 1168 804 1158T927 1132L1038 1164H1040L1083 1125V-368L1222 -391V-496H640V-391L856 -368V-48L863 120Q803 58 719 18T532 -23Q411 -23 310 39T147 229T85 546Q85
721 156 862ZM856 992Q844 1016 787 1035T661 1055Q512 1055 421 937T330 566Q330 421 368 322T473 175T624 127Q696 127 757 158T856 229V992Z" />
<glyph unicode="r" glyph-name="r" horiz-adv-x="943" d="M250 124V964L108 1004V1124L394 1164H399L447 1125V1062L445 932H447Q465 965 516 1020T649 1122T827 1168Q866 1168 893 1157V911Q874 922 843 929T775 937Q674 937 601 913T478 851V125L741 107V0H93V108L250
124Z" />
<glyph unicode="s" glyph-name="s" horiz-adv-x="1043" d="M260 325L300 173Q312 152 346 133T428 102T524 90Q637 90 685 132T733 249Q733 301 701 340T604 415T430 494Q271 556 198 640T125 859Q125 949 179 1017T329 1124T543 1162Q635 1162 705 1148T846 1110L882
1099V846H754L711 986Q699 1012 647 1031T529 1050Q437 1050 387 1011T337 909Q337 853 366 815T440 753T563 696L602 679Q716 630 787 587T905 477T952 313Q952 213 900 137T748 19T512 -23Q410 -23 298 5T119 63V325H260Z" />
<glyph unicode="t" glyph-name="t" horiz-adv-x="834" d="M67 994V1089Q95 1096 131 1109T179 1129Q212 1153 233 1207Q248 1241 272 1315T306 1428H436L438 1137H774V994H439V389Q439 267 446 220T474 159T553 145H554Q606 145 671 158T773 185H774L808 88Q778
63 718 38T589 -5T462 -22H460Q336 -22 273 32T210 215V994H67Z" />
<glyph unicode="u" glyph-name="u" horiz-adv-x="1307" d="M908 136Q844 74 746 26T548 -23Q423 -23 345 21T230 163T193 419V999L82 1036V1133L378 1163H379L421 1136V430Q421 316 438 252T498 159T622 129Q700 129 767 159T883 228V998L740 1037V1134L1056 1163H1058L1111
1136V113H1231V13Q1173 -4 1131 -13T1033 -23Q969 -23 939 1T908 84V136Z" />
<glyph unicode="v" glyph-name="v" horiz-adv-x="1169" d="M-3 1031V1137H497V1031L347 1005L543 440L631 171L705 430L894 1005L756 1031V1137H1179V1031L1075 1004L689 -16H501L91 1005L-3 1031Z" />
<glyph unicode="w" glyph-name="w" horiz-adv-x="1758" d="M-14 1031V1137H487V1031L329 1005L494 416L551 161L605 416L806 1137H1019L1225 417L1280 163L1340 414L1500 1004L1345 1031V1137H1778V1031L1664 1005L1351 -16H1142L926 709L875 950L836 709L628
-16H424L96 1005L-14 1031Z" />
<glyph unicode="x" glyph-name="x" horiz-adv-x="1218" d="M151 125L498 568L160 1005L42 1031V1137H572V1031L434 1005L610 759L669 669L720 758L904 1005L757 1031V1137H1198V1031L1073 1005L744 593L1098 124L1215 106V0H682V106L813 125L570 481L519 392L334
126L499 106V0H14V106L151 125Z" />
<glyph unicode="y" glyph-name="y" horiz-adv-x="1180" d="M146 -306Q158 -313 195 -318T265 -324Q325 -324 375 -300T478 -204T579 0H466L92 1005L-3 1031V1137H506V1031L349 1005L542 401L631 111L711 402L892 1006L758 1031V1137H1178V1031L1076 1006Q932 558
842 291T726 -34Q658 -206 598 -306T458 -458T263 -510Q232 -510 196 -506T146 -495V-306Z" />
<glyph unicode="z" glyph-name="z" horiz-adv-x="1138" d="M787 1015L322 1000L283 810H146V1137H1009L1051 1045L466 249L335 121L851 143L927 360L1057 345L1027 0H107L62 94L656 883L787 1015Z" />
<glyph unicode="{" glyph-name="braceleft" horiz-adv-x="1035" d="M431 512T416 544T346 596T177 615V776Q293 776 347 789T416 831T431 913Q431 964 416 1010T368 1131Q332 1211 314 1269T296 1393Q296 1521 368 1585T612 1649Q739 1649 878 1613V1513Q850 1514
793 1514T707 1515Q642 1515 602 1502T541 1455T519 1355Q519 1316 530 1270T566 1149Q592 1069 606 1013T620 906Q620 811 553 759T372 688Q620 651 620 463Q620 412 606 356T566 220Q543 148 531 101T519 15Q519 -50 540 -85T602 -132T707 -145Q736 -145 793
-144T878 -142V-244Q739 -280 612 -280Q439 -280 368 -215T296 -24Q296 42 314 99T368 237Q400 309 415 356T431 455Q431 512 416 544Z" />
<glyph unicode="|" glyph-name="bar" horiz-adv-x="865" d="M524 1780V-186H341V1780H524Z" />
<glyph unicode="}" glyph-name="braceright" horiz-adv-x="1035" d="M739 -150T668 -215T423 -280Q296 -280 157 -244V-142Q185 -143 242 -144T328 -145Q393 -145 433 -133T494 -85T516 15Q516 54 504 101T469 220Q443 300 429 356T415 463Q415 651 663 688Q549
706 482 758T415 906Q415 957 429 1013T469 1149Q493 1223 504 1269T516 1355Q516 1420 495 1454T433 1502T328 1515Q300 1515 243 1515T157 1513V1613Q296 1649 423 1649Q595 1649 667 1585T739 1393Q739 1327 721 1269T667 1131Q635 1057 620 1011T604 913Q604
859 619 831T688 790T858 776V615Q744 615 689 596T619 545T604 455Q604 404 619 357T667 237Q703 156 721 99T739 -24Q739 -150 668 -215Z" />
<glyph unicode="~" glyph-name="asciitilde" horiz-adv-x="1416" d="M242 639T290 682T401 752T534 780Q580 780 619 767T688 735T759 685Q809 648 839 632T907 615Q973 615 1023 645T1115 725L1199 630Q1170 580 1122 537T1012 468T880 441Q836 441 799 454T733
485T665 533Q616 571 583 589T509 607Q446 607 395 577T299 497L215 592Q242 639 290 682Z" />
<glyph unicode="&#xa0;" glyph-name="uni00A0" horiz-adv-x="616" />
<glyph unicode="&#xa1;" glyph-name="exclamdown" horiz-adv-x="727" d="M282 1142T246 1180T210 1278Q210 1326 232 1361T293 1416T377 1436Q414 1436 446 1420T498 1372T518 1300Q518 1256 495 1220T433 1163T352 1142Q282 1142 246 1180ZM244 -368L304 907H443L507
-368H244Z" />
<glyph unicode="&#xa2;" glyph-name="cent" horiz-adv-x="1187" d="M620 1375H763L752 1166Q868 1157 1005 1106L995 798H856L810 985Q796 1018 755 1034T655 1050Q567 1050 502 1002T401 857T365 618Q365 453 408 344T525 183T692 131Q779 131 852 156T978 219L1021
127Q969 73 871 29T669 -22L658 -243H515L527 -13Q394 11 303 90T167 288T121 554Q121 711 177 842T342 1058T608 1162L620 1375Z" />
<glyph unicode="&#xa3;" glyph-name="sterling" horiz-adv-x="1509" d="M395 872V1022Q395 1172 464 1290T651 1473T907 1539Q1007 1539 1091 1513T1232 1439L1117 1272Q1106 1294 1068 1325T972 1379T848 1402Q755 1402 695 1335T634 1075V872H941V754H634V579Q634
464 599 378T503 224Q543 220 584 212T698 186Q795 163 858 152T982 141Q1061 141 1104 161T1163 221T1180 327Q1180 383 1163 438T1125 513H1366Q1383 494 1395 452T1407 352Q1407 259 1356 174T1212 37T1002 -15Q912 -15 835 4T655 62Q575 92 522 106T416 122Q367
65 316 32T210 -1Q168 -1 136 21T103 90Q103 132 137 169T230 229T353 248Q371 281 383 367T395 530V754H198V872H395Z" />
<glyph unicode="&#xa4;" glyph-name="currency" horiz-adv-x="1547" d="M376 563T357 627T337 763Q337 836 357 904T416 1029L197 1247L318 1370L537 1150Q642 1220 770 1220Q901 1220 1008 1154L1227 1372L1349 1250L1133 1036Q1171 983 1191 919T1212 783Q1212
710 1191 642T1129 516L1345 300L1223 178L1005 395Q900 326 770 326Q641 326 536 390L319 174L197 296L412 510Q376 563 357 627ZM1027 844T992 909T896 1014T765 1053Q683 1053 627 1014T543 909T515 767Q515 692 549 630T642 530T772 493Q900 493 963 569T1027
768Q1027 844 992 909Z" />
<glyph unicode="&#xa5;" glyph-name="yen" horiz-adv-x="1595" d="M637 839L270 1396L137 1423V1522H690V1423L532 1397L788 962L847 848L919 965L1160 1397L995 1423V1522H1473V1423L1328 1395L984 839H1374V722H917V473H1374V355H917V124L1153 99V0H487V99L717
125V355H259V473H717V718L714 722H259V839H637Z" />
<glyph unicode="&#xa6;" glyph-name="brokenbar" horiz-adv-x="865" d="M524 1780V950H341V1780H524ZM524 641V-186H341V641H524Z" />
<glyph unicode="&#xa7;" glyph-name="section" horiz-adv-x="1374" d="M354 242L392 7Q425 -30 504 -56T672 -83Q817 -83 891 -35T965 92Q965 160 923 206T814 286T620 368Q491 421 398 480T244 629T184 840Q184 924 221 989T330 1107Q229 1211 229 1350Q229 1448
287 1523T455 1641T713 1683Q802 1683 877 1668T1039 1628Q1080 1615 1107 1610L1094 1287H964L910 1504Q901 1516 872 1529T799 1552T702 1561Q571 1561 503 1518T435 1394Q435 1325 468 1280T554 1204T710 1129L751 1111Q875 1057 965 1007T1127 870T1199 669Q1199
505 1059 380Q1173 278 1173 148Q1173 58 1118 -22T946 -153T660 -203Q554 -203 466 -184T281 -133Q216 -111 192 -109L212 242H354ZM999 520T999 605Q999 679 957 733T842 829T647 920Q573 952 523 975T426 1030Q366 972 366 890Q366 811 411 755T529 657T735
558Q806 529 854 507T949 458Q999 520 999 605Z" />
<glyph unicode="&#xa8;" glyph-name="dieresis" horiz-adv-x="1022" d="M139 1559T177 1605T286 1652H287Q348 1652 383 1611T419 1514Q419 1444 380 1400T266 1355H265Q208 1355 174 1394T139 1492Q139 1559 177 1605ZM607 1559T645 1605T754 1652H755Q817 1652
852 1611T888 1514Q888 1444 849 1400T733 1355H732Q677 1355 642 1395T607 1492Q607 1559 645 1605Z" />
<glyph unicode="&#xa9;" glyph-name="copyright" horiz-adv-x="2129" d="M1303 1878T1502 1761T1818 1443T1934 1003Q1934 763 1818 562T1503 242T1065 124Q826 124 627 242T311 561T195 1003Q195 1242 311 1442T626 1760T1065 1878Q1303 1878 1502 1761ZM1269
243T1436 346T1700 623T1797 1003Q1797 1207 1701 1381T1437 1658T1065 1761Q861 1761 693 1658T428 1381T331 1003Q331 798 427 624T692 346T1065 243Q1269 243 1436 346ZM618 1134T684 1249T867 1432T1128 1499Q1201 1499 1278 1482T1384 1438L1382 1209H1266L1220
1341Q1196 1359 1163 1367T1058 1376Q980 1376 924 1334T839 1214T809 1032Q809 924 850 841T966 711T1135 664Q1196 664 1249 686T1345 747L1394 667Q1364 629 1314 594T1200 537T1068 514Q923 514 822 575T670 744T618 995Q618 1134 684 1249Z" />
<glyph unicode="&#xaa;" glyph-name="ordfeminine" horiz-adv-x="1038" d="M115 1075T261 1147T685 1228V1253Q685 1338 668 1383T608 1446T488 1464Q355 1464 197 1392L141 1499Q180 1525 248 1551T393 1594T532 1611Q652 1611 730 1579T847 1474T887 1278V786H997V698Q885
670 810 670Q768 670 745 674T709 695T696 747V796Q637 741 566 705T400 669Q315 669 250 702T150 795T115 929Q115 1075 261 1147ZM685 883V1131Q551 1127 475 1106T366 1046T334 945Q334 882 375 842T488 802Q525 802 565 815T638 848T684 884L685 883Z" />
<glyph unicode="&#xab;" glyph-name="guillemotleft" horiz-adv-x="1916" d="M1638 1127L1704 1015L1241 614L1709 222L1638 108L979 533V689L1638 1127ZM894 1127L960 1015L497 614L965 222L894 108L235 533V689L894 1127Z" />
<glyph unicode="&#xac;" glyph-name="logicalnot" horiz-adv-x="1410" d="M1200 699V159H1024V554H210V699H1200Z" />
<glyph unicode="&#xad;" glyph-name="uni00AD" horiz-adv-x="1345" d="M1115 696V536H230V696H1115Z" />
<glyph unicode="&#xae;" glyph-name="registered" horiz-adv-x="2129" d="M1303 1878T1502 1761T1818 1443T1934 1003Q1934 763 1818 562T1503 242T1065 124Q826 124 627 242T311 561T195 1003Q195 1242 311 1442T626 1760T1065 1878Q1303 1878 1502 1761ZM1269
243T1436 346T1700 623T1797 1003Q1797 1207 1701 1381T1437 1658T1065 1761Q861 1761 693 1658T428 1381T331 1003Q331 798 427 624T692 346T1065 243Q1269 243 1436 346ZM756 633V1360L665 1383V1481H828H867Q892 1481 958 1483L1079 1486Q1197 1486 1281 1456T1408
1370T1451 1237Q1451 1123 1399 1048T1255 947Q1310 918 1337 872T1388 756Q1405 709 1417 684T1451 639T1508 616V519H1337Q1300 519 1278 541T1245 595T1220 686Q1206 746 1194 784T1156 857T1091 909L928 911V627L1027 606V519H665V606L756 633ZM1126 1027T1167
1051T1232 1115T1256 1205Q1256 1299 1207 1339T1048 1380Q1006 1380 985 1379T928 1370V1035Q951 1030 986 1029T1075 1027Q1126 1027 1167 1051Z" />
<glyph unicode="&#xaf;" glyph-name="overscore" horiz-adv-x="681" d="M619 1586V1428H61V1586H619Z" />
<glyph unicode="&#xb0;" glyph-name="degree" horiz-adv-x="942" d="M120 1391T167 1470T295 1595T470 1641Q571 1641 651 1594T776 1468T822 1293Q822 1194 775 1115T648 990T470 944Q376 944 296 991T168 1119T120 1293Q120 1391 167 1470ZM668 1348T642 1395T570
1469T469 1497Q412 1497 368 1471T298 1398T272 1293Q272 1238 299 1192T372 1117T472 1089Q530 1089 574 1115T643 1187T668 1293Q668 1348 642 1395Z" />
<glyph unicode="&#xb1;" glyph-name="plusminus" horiz-adv-x="1353" d="M425 768L597 757L591 922V1150H762V922L754 757L899 768H1138V599H899L754 605L762 443V225H591V443L597 605L425 599H215V768H425ZM1122 160V0H229V160H1122Z" />
<glyph unicode="&#xb4;" glyph-name="acute" horiz-adv-x="681" d="M534 1814H535L694 1675Q668 1631 588 1557T420 1417T287 1334H285L204 1408L534 1814Z" />
<glyph unicode="&#xb5;" glyph-name="uni00B5" horiz-adv-x="1398" d="M128 1051V1132L430 1160L473 1133V356Q473 310 499 257T578 167T706 130Q795 130 853 169T936 261V1001L806 1050V1133L1131 1160L1163 1134V112H1282V9Q1250 -6 1189 -18T1076 -30Q1022
-30 995 -6T968 65V141Q933 73 861 26T697 -21Q624 -21 562 2T456 67V-373H246V1001L128 1051Z" />
<glyph unicode="&#xb6;" glyph-name="paragraph" horiz-adv-x="1493" d="M531 128V792Q315 792 206 913T97 1257Q97 1388 161 1490T350 1652T649 1711Q760 1711 882 1702Q966 1696 1025 1694T1175 1691H1352V1581L1189 1559V128L1328 104V0H986V1550Q871 1565
772 1565Q747 1565 734 1562V0H330V104L531 128Z" />
<glyph unicode="&#xb7;" glyph-name="middot" horiz-adv-x="707" d="M203 727T226 763T288 821T368 842Q437 842 473 803T510 706Q510 659 488 623T427 567T343 547Q306 547 274 564T223 612T203 683Q203 727 226 763Z" />
<glyph unicode="&#xb8;" glyph-name="cedilla" horiz-adv-x="615" d="M291 3Q317 -21 349 -67T403 -174T422 -294Q417 -402 352 -448T158 -494H157Q122 -494 81 -487T13 -467L14 -314Q33 -321 59 -324T100 -328H101Q153 -328 182 -319T227 -279T243 -187Q243 -138
222 -83T181 3L249 13L291 3Z" />
<glyph unicode="&#xba;" glyph-name="ordmasculine" horiz-adv-x="1051" d="M97 1302T162 1405T328 1558T537 1608Q668 1608 762 1555T905 1398T955 1148Q955 987 891 881T727 726T524 676Q400 676 303 728T150 887T96 1150Q97 1302 162 1405ZM732 1304T679 1403T530
1502Q319 1502 319 1158Q319 1043 346 958T420 827T522 781Q596 781 640 808T708 911T732 1128Q732 1304 679 1403Z" />
<glyph unicode="&#xbb;" glyph-name="guillemotright" horiz-adv-x="1908" d="M954 533L295 108L224 222L692 614L229 1015L295 1127L954 689V533ZM1675 533L1016 108L945 222L1413 614L950 1015L1016 1127L1675 689V533Z" />
<glyph unicode="&#xbc;" glyph-name="onequarter" horiz-adv-x="2375" d="M1427 1672L1579 1650L838 -161L684 -143L1427 1672ZM409 678V1359Q313 1323 159 1295L130 1410Q233 1441 319 1479T483 1577H487L601 1559V678L828 655V549H155V655L409 678ZM1517 537Q1785
1023 1817 1086H2001L2036 1045L1648 412L1570 310L1942 328L1955 586L2125 599V337L2300 346V199H2125V0H1942L1941 199H1453L1382 289L1517 537Z" />
<glyph unicode="&#xbd;" glyph-name="onehalf" horiz-adv-x="2331" d="M409 678V1359Q313 1323 159 1295L130 1410Q233 1441 319 1479T483 1577H487L601 1559V678L828 655V549H155V655L409 678ZM1427 1672L1579 1650L838 -161L684 -143L1427 1672ZM1540 166T1658
260T1866 473T1956 704Q1956 786 1907 835T1767 885Q1685 885 1613 854T1501 782L1432 861Q1460 898 1516 936T1650 1001T1814 1028Q1923 1028 2001 990T2120 888T2160 747Q2160 645 2085 531T1889 311T1630 121L2055 153L2136 300L2242 279L2190 0H1477L1436 103Q1540
166 1658 260Z" />
<glyph unicode="&#xbe;" glyph-name="threequarters" horiz-adv-x="2401" d="M1452 1672L1604 1650L863 -161L709 -143L1452 1672ZM185 682T250 669T372 655Q680 655 680 853Q680 898 652 935T571 994T449 1013L371 987Q334 976 327 973L293 1078Q323 1084 364
1097T443 1129Q591 1199 591 1312Q591 1376 552 1409T420 1442Q351 1442 284 1421T173 1365L113 1460Q163 1510 260 1543T470 1577Q567 1577 641 1548T756 1467T797 1349Q797 1164 567 1075Q583 1077 613 1077Q701 1077 763 1045T857 962T889 854Q889 762 838 689T685
572T435 529Q350 529 272 544T132 587V702Q185 682 250 669ZM1542 537Q1810 1023 1842 1086H2026L2061 1045L1673 412L1595 310L1967 328L1980 586L2150 599V337L2325 346V199H2150V0H1967L1966 199H1478L1407 289L1542 537Z" />
<glyph unicode="&#xbf;" glyph-name="questiondown" horiz-adv-x="994" d="M524 1170T509 1170Q464 1170 434 1195T393 1262Q390 1277 390 1292Q390 1340 423 1373T506 1415Q519 1419 536 1419Q576 1419 609 1395T653 1327Q655 1313 655 1306Q655 1257 621 1220T539
1173Q524 1170 509 1170ZM754 572T719 527T632 449T496 373Q429 339 389 316T316 262T267 197V169Q268 59 320 -41T475 -204T724 -268Q788 -268 853 -255L888 -386Q871 -399 796 -410T646 -422Q447 -422 316 -351T123 -165T62 78Q62 172 107 246T215 371T375 486Q448
533 487 564T548 629Q551 642 551 676Q548 791 525 902L654 934Q676 912 698 856T735 736T754 631Q754 572 719 527Z" />
<glyph unicode="&#xc0;" glyph-name="Agrave" horiz-adv-x="1417" d="M93 133L586 1534H824L1321 133L1448 109V0H899V109L1062 133L967 425H379L288 133L459 109V0H-33L-34 109L93 133ZM926 552L712 1209L668 1377L624 1207L419 552H926ZM547 2012H548L879 1701L799
1633H798Q749 1649 665 1692T504 1787T395 1885L547 2012Z" />
<glyph unicode="&#xc1;" glyph-name="Aacute" horiz-adv-x="1417" d="M93 133L586 1534H824L1321 133L1448 109V0H899V109L1062 133L967 425H379L288 133L459 109V0H-33L-34 109L93 133ZM926 552L712 1209L668 1377L624 1207L419 552H926ZM899 2012H900L1053 1885Q1017
1838 940 1786T780 1691T649 1633H648L568 1701L899 2012Z" />
<glyph unicode="&#xc2;" glyph-name="Acircumflex" horiz-adv-x="1417" d="M93 133L586 1534H824L1321 133L1448 109V0H899V109L1062 133L967 425H379L288 133L459 109V0H-33L-34 109L93 133ZM926 552L712 1209L668 1377L624 1207L419 552H926ZM620 2013H803L1077
1715L985 1654L712 1856L434 1654L349 1713L620 2013Z" />
<glyph unicode="&#xc3;" glyph-name="Atilde" horiz-adv-x="1417" d="M93 133L586 1534H824L1321 133L1448 109V0H899V109L1062 133L967 425H379L288 133L459 109V0H-33L-34 109L93 133ZM926 552L712 1209L668 1377L624 1207L419 552H926ZM484 1851T451 1821T402
1764T381 1732L285 1795Q300 1843 339 1892T439 1975T572 2008Q614 2008 648 1995T708 1963T768 1913Q809 1876 836 1859T898 1842Q951 1842 981 1871T1026 1927T1045 1962L1143 1898Q1109 1806 1042 1745T877 1684Q818 1684 775 1708T681 1777Q636 1815 606 1833T537
1851Q484 1851 451 1821Z" />
<glyph unicode="&#xc4;" glyph-name="Adieresis" horiz-adv-x="1417" d="M93 133L586 1534H824L1321 133L1448 109V0H899V109L1062 133L967 425H379L288 133L459 109V0H-33L-34 109L93 133ZM926 552L712 1209L668 1377L624 1207L419 552H926ZM323 1891T361 1937T470
1983H471Q512 1983 542 1964T587 1913T603 1846Q603 1776 564 1732T449 1687H448Q393 1687 358 1726T323 1823Q323 1891 361 1937ZM823 1891T861 1937T969 1983H970Q1012 1983 1042 1964T1087 1913T1103 1846Q1103 1776 1064 1732T950 1687H949Q893 1687 858 1726T823
1823Q823 1891 861 1937Z" />
<glyph unicode="&#xc5;" glyph-name="Aring" horiz-adv-x="1417" d="M1448 109V0H899V109L1062 133L967 425H379L288 133L459 109V0H-33L-34 109L93 133L581 1520Q481 1545 431 1608T381 1758Q381 1839 429 1897T555 1984T725 2014H726Q830 2014 902 1982T1011
1892T1047 1759Q1047 1668 988 1606T829 1519L1321 133L1448 109ZM542 1914T542 1763Q542 1696 585 1650T716 1604H717Q807 1604 847 1641T888 1750Q888 1823 847 1868T718 1914H717Q542 1914 542 1763ZM926 552L712 1209L668 1377L624 1207L419 552H926Z" />
<glyph unicode="&#xc6;" glyph-name="AE" horiz-adv-x="1887" d="M814 130V434H297L175 130L327 106V0H-176V106L-28 132L526 1388L262 1413V1522H1689L1720 1202H1593L1527 1397L1047 1409V841L1371 847L1401 1012H1528V544H1401L1371 715L1047 720V123L1603
146L1729 398L1861 360L1786 0H644V107L814 130ZM814 564V1400H689L582 1140L350 564H814Z" />
<glyph unicode="&#xc7;" glyph-name="Ccedilla" horiz-adv-x="1335" d="M1187 54T1162 48T1097 27Q1029 3 967 -10T814 -23H803Q845 -73 877 -141T910 -280Q910 -396 844 -445T646 -494H645Q610 -494 569 -487T501 -467L502 -314Q521 -321 547 -324T588 -328H589Q641
-328 670 -319T715 -279T731 -187Q731 -145 715 -98T679 -15Q482 10 345 109T137 374T66 762Q66 998 163 1174T430 1444T808 1538Q904 1538 993 1524T1196 1487L1250 1476L1231 1102H1082L1026 1357Q1005 1385 941 1401T773 1418Q645 1418 547 1345T393 1130T337
786Q337 600 386 444T539 192T798 96Q959 96 1029 170L1116 381L1258 362L1214 56Q1187 54 1162 48Z" />
<glyph unicode="&#xc8;" glyph-name="Egrave" horiz-adv-x="1339" d="M508 2012H509L840 1701L760 1633H759Q710 1649 626 1692T465 1787T356 1885L508 2012ZM264 133V1386L99 1411V1522H1141L1169 1205H1040L978 1395L499 1408V843L824 849L854 1015H983V541H854L825
717L499 722V124L1049 146L1162 397L1290 359L1231 0H96V109L264 133Z" />
<glyph unicode="&#xc9;" glyph-name="Eacute" horiz-adv-x="1339" d="M880 2012H881L1034 1885Q998 1838 921 1786T761 1691T630 1633H629L549 1701L880 2012ZM264 133V1386L99 1411V1522H1141L1169 1205H1040L978 1395L499 1408V843L824 849L854 1015H983V541H854L825
717L499 722V124L1049 146L1162 397L1290 359L1231 0H96V109L264 133Z" />
<glyph unicode="&#xca;" glyph-name="Ecircumflex" horiz-adv-x="1339" d="M264 133V1386L99 1411V1522H1141L1169 1205H1040L978 1395L499 1408V843L824 849L854 1015H983V541H854L825 717L499 722V124L1049 146L1162 397L1290 359L1231 0H96V109L264 133ZM605
2013H788L1062 1715L970 1654L697 1856L419 1654L334 1713L605 2013Z" />
<glyph unicode="&#xcb;" glyph-name="Edieresis" horiz-adv-x="1339" d="M307 1891T345 1937T454 1983H455Q496 1983 526 1964T571 1913T587 1846Q587 1776 548 1732T433 1687H432Q377 1687 342 1726T307 1823Q307 1891 345 1937ZM807 1891T845 1937T953 1983H954Q996
1983 1026 1964T1071 1913T1087 1846Q1087 1776 1048 1732T934 1687H933Q877 1687 842 1726T807 1823Q807 1891 845 1937ZM264 133V1386L99 1411V1522H1141L1169 1205H1040L978 1395L499 1408V843L824 849L854 1015H983V541H854L825 717L499 722V124L1049 146L1162
397L1290 359L1231 0H96V109L264 133Z" />
<glyph unicode="&#xcc;" glyph-name="Igrave" horiz-adv-x="827" d="M295 133V1385L112 1411V1522H714V1411L531 1386V133L717 106V0H112V109L295 133ZM250 2012H251L582 1701L502 1633H501Q452 1649 368 1692T207 1787T98 1885L250 2012Z" />
<glyph unicode="&#xcd;" glyph-name="Iacute" horiz-adv-x="827" d="M295 133V1385L112 1411V1522H714V1411L531 1386V133L717 106V0H112V109L295 133ZM602 2012H603L756 1885Q720 1838 643 1786T483 1691T352 1633H351L271 1701L602 2012Z" />
<glyph unicode="&#xce;" glyph-name="Icircumflex" horiz-adv-x="827" d="M295 133V1385L112 1411V1522H714V1411L531 1386V133L717 106V0H112V109L295 133ZM579 2013H762L1036 1715L944 1654L671 1856L393 1654L308 1713L579 2013Z" />
<glyph unicode="&#xcf;" glyph-name="Idieresis" horiz-adv-x="827" d="M295 133V1385L112 1411V1522H714V1411L531 1386V133L717 106V0H112V109L295 133ZM282 1891T320 1937T429 1983H430Q471 1983 501 1964T546 1913T562 1846Q562 1776 523 1732T408 1687H407Q352
1687 317 1726T282 1823Q282 1891 320 1937ZM782 1891T820 1937T928 1983H929Q971 1983 1001 1964T1046 1913T1062 1846Q1062 1776 1023 1732T909 1687H908Q852 1687 817 1726T782 1823Q782 1891 820 1937Z" />
<glyph unicode="&#xd0;" glyph-name="Eth" horiz-adv-x="1561" d="M264 851V1385L106 1411V1522H373Q423 1522 478 1525T551 1529Q669 1537 733 1537Q1116 1537 1302 1346T1489 809Q1489 566 1394 379T1128 88T733 -16Q682 -16 562 -8Q438 0 383 0H95V109L264
133V735H112V851H264ZM839 851V735H498V123Q540 112 585 108T688 104H734Q882 107 994 182T1170 405T1234 766Q1234 1089 1096 1254T680 1419Q619 1419 529 1409L498 1406V851H839Z" />
<glyph unicode="&#xd1;" glyph-name="Ntilde" horiz-adv-x="1640" d="M600 1851T567 1821T518 1764T497 1732L401 1795Q416 1843 455 1892T555 1975T688 2008Q730 2008 764 1995T824 1963T884 1913Q925 1876 952 1859T1014 1842Q1067 1842 1097 1871T1142 1927T1161
1962L1259 1898Q1225 1806 1158 1745T993 1684Q934 1684 891 1708T797 1777Q752 1815 722 1833T653 1851Q600 1851 567 1821ZM263 132V1385L98 1411V1522H493L1166 539L1272 341V1386L1093 1411V1522H1589V1411L1423 1385V0H1259L570 1003L414 1275V133L605 109V0H98V109L263
132Z" />
<glyph unicode="&#xd2;" glyph-name="Ograve" horiz-adv-x="1480" d="M578 2012H579L910 1701L830 1633H829Q780 1649 696 1692T535 1787T426 1885L578 2012ZM66 986T156 1165T403 1441T758 1539Q972 1539 1119 1446T1339 1181T1413 777Q1413 538 1323 357T1073
76T713 -23Q505 -23 360 73T140 344T66 750Q66 986 156 1165ZM326 551T375 403T517 175T740 95Q867 95 959 171T1103 399T1154 776Q1154 976 1106 1121T964 1344T741 1422Q613 1422 520 1349T377 1125T326 751Q326 551 375 403Z" />
<glyph unicode="&#xd3;" glyph-name="Oacute" horiz-adv-x="1480" d="M931 2012H932L1085 1885Q1049 1838 972 1786T812 1691T681 1633H680L600 1701L931 2012ZM66 986T156 1165T403 1441T758 1539Q972 1539 1119 1446T1339 1181T1413 777Q1413 538 1323 357T1073
76T713 -23Q505 -23 360 73T140 344T66 750Q66 986 156 1165ZM326 551T375 403T517 175T740 95Q867 95 959 171T1103 399T1154 776Q1154 976 1106 1121T964 1344T741 1422Q613 1422 520 1349T377 1125T326 751Q326 551 375 403Z" />
<glyph unicode="&#xd4;" glyph-name="Ocircumflex" horiz-adv-x="1480" d="M66 986T156 1165T403 1441T758 1539Q972 1539 1119 1446T1339 1181T1413 777Q1413 538 1323 357T1073 76T713 -23Q505 -23 360 73T140 344T66 750Q66 986 156 1165ZM326 551T375 403T517
175T740 95Q867 95 959 171T1103 399T1154 776Q1154 976 1106 1121T964 1344T741 1422Q613 1422 520 1349T377 1125T326 751Q326 551 375 403ZM652 2013H835L1109 1715L1017 1654L744 1856L466 1654L381 1713L652 2013Z" />
<glyph unicode="&#xd5;" glyph-name="Otilde" horiz-adv-x="1480" d="M516 1851T483 1821T434 1764T413 1732L317 1795Q332 1843 371 1892T471 1975T604 2008Q646 2008 680 1995T740 1963T800 1913Q841 1876 868 1859T930 1842Q983 1842 1013 1871T1058 1927T1077
1962L1175 1898Q1141 1806 1074 1745T909 1684Q850 1684 807 1708T713 1777Q668 1815 638 1833T569 1851Q516 1851 483 1821ZM66 986T156 1165T403 1441T758 1539Q972 1539 1119 1446T1339 1181T1413 777Q1413 538 1323 357T1073 76T713 -23Q505 -23 360 73T140
344T66 750Q66 986 156 1165ZM326 551T375 403T517 175T740 95Q867 95 959 171T1103 399T1154 776Q1154 976 1106 1121T964 1344T741 1422Q613 1422 520 1349T377 1125T326 751Q326 551 375 403Z" />
<glyph unicode="&#xd6;" glyph-name="Odieresis" horiz-adv-x="1480" d="M355 1891T393 1937T502 1983H503Q544 1983 574 1964T619 1913T635 1846Q635 1776 596 1732T481 1687H480Q425 1687 390 1726T355 1823Q355 1891 393 1937ZM855 1891T893 1937T1001 1983H1002Q1044
1983 1074 1964T1119 1913T1135 1846Q1135 1776 1096 1732T982 1687H981Q925 1687 890 1726T855 1823Q855 1891 893 1937ZM66 986T156 1165T403 1441T758 1539Q972 1539 1119 1446T1339 1181T1413 777Q1413 538 1323 357T1073 76T713 -23Q505 -23 360 73T140 344T66
750Q66 986 156 1165ZM326 551T375 403T517 175T740 95Q867 95 959 171T1103 399T1154 776Q1154 976 1106 1121T964 1344T741 1422Q613 1422 520 1349T377 1125T326 751Q326 551 375 403Z" />
<glyph unicode="&#xd7;" glyph-name="multiply" horiz-adv-x="1240" d="M509 616L162 944L295 1081L620 726L945 1080L1077 944L731 616L1077 289L945 152L620 506L295 152L163 289L509 616Z" />
<glyph unicode="&#xd8;" glyph-name="Oslash" horiz-adv-x="1480" d="M411 43Q242 129 154 313T66 750Q66 986 156 1165T403 1441T758 1539Q870 1539 970 1511L1050 1719L1156 1683L1071 1472Q1240 1388 1326 1209T1413 777Q1413 541 1325 361T1080 80T727 -23Q615
-24 515 2L425 -216L317 -183L411 43ZM326 565T368 425T490 201L918 1376Q840 1422 741 1422Q613 1422 520 1349T377 1125T326 751Q326 565 368 425ZM568 139Q644 95 740 95Q867 95 959 171T1103 399T1154 776Q1154 957 1114 1094T996 1313L568 139Z" />
<glyph unicode="&#xd9;" glyph-name="Ugrave" horiz-adv-x="1508" d="M629 2012H630L961 1701L881 1633H880Q831 1649 747 1692T586 1787T477 1885L629 2012ZM184 1385L40 1411V1522H598V1411L428 1385V620Q428 344 526 224T803 103Q980 103 1071 234T1162 609V1385L997
1411V1522H1476V1411L1328 1385V619Q1328 406 1257 264T1062 53T776 -16Q568 -16 438 53T246 268T184 643V1385Z" />
<glyph unicode="&#xda;" glyph-name="Uacute" horiz-adv-x="1508" d="M979 2012H980L1133 1885Q1097 1838 1020 1786T860 1691T729 1633H728L648 1701L979 2012ZM184 1385L40 1411V1522H598V1411L428 1385V620Q428 344 526 224T803 103Q980 103 1071 234T1162
609V1385L997 1411V1522H1476V1411L1328 1385V619Q1328 406 1257 264T1062 53T776 -16Q568 -16 438 53T246 268T184 643V1385Z" />
<glyph unicode="&#xdb;" glyph-name="Ucircumflex" horiz-adv-x="1508" d="M184 1385L40 1411V1522H598V1411L428 1385V620Q428 344 526 224T803 103Q980 103 1071 234T1162 609V1385L997 1411V1522H1476V1411L1328 1385V619Q1328 406 1257 264T1062 53T776 -16Q568
-16 438 53T246 268T184 643V1385ZM699 2013H882L1156 1715L1064 1654L791 1856L513 1654L428 1713L699 2013Z" />
<glyph unicode="&#xdc;" glyph-name="Udieresis" horiz-adv-x="1508" d="M403 1891T441 1937T550 1983H551Q592 1983 622 1964T667 1913T683 1846Q683 1776 644 1732T529 1687H528Q473 1687 438 1726T403 1823Q403 1891 441 1937ZM903 1891T941 1937T1049 1983H1050Q1092
1983 1122 1964T1167 1913T1183 1846Q1183 1776 1144 1732T1030 1687H1029Q973 1687 938 1726T903 1823Q903 1891 941 1937ZM184 1385L40 1411V1522H598V1411L428 1385V620Q428 344 526 224T803 103Q980 103 1071 234T1162 609V1385L997 1411V1522H1476V1411L1328
1385V619Q1328 406 1257 264T1062 53T776 -16Q568 -16 438 53T246 268T184 643V1385Z" />
<glyph unicode="&#xdd;" glyph-name="Yacute" horiz-adv-x="1317" d="M552 133V592L100 1384L-28 1411V1522H520V1411L365 1385L647 842L704 697L769 840L1037 1386L875 1411V1522H1348V1411L1215 1386L795 597V132L1019 109V0H333V109L552 133ZM871 2012H872L1025
1885Q989 1838 912 1786T752 1691T621 1633H620L540 1701L871 2012Z" />
<glyph unicode="&#xde;" glyph-name="Thorn" horiz-adv-x="1327" d="M263 131V1387L98 1415V1522H670V1415L496 1387V1164L564 1170Q639 1177 693 1180T806 1184Q1030 1184 1149 1083T1269 784Q1269 557 1131 446T740 335Q589 335 496 343V131L712 107V0H95V107L263
131ZM1015 1063T707 1063Q615 1063 496 1045V457Q573 448 684 448H718Q855 448 935 524T1015 772Q1015 1063 707 1063Z" />
<glyph unicode="&#xdf;" glyph-name="germandbls" horiz-adv-x="1298" d="M184 128V956Q184 1157 263 1304T476 1528T771 1606Q930 1606 1027 1537T1125 1332Q1125 1272 1107 1226T1063 1146T995 1070Q947 1020 924 985T901 905Q901 869 919 837T966 776T1044
703Q1112 643 1155 597T1229 485T1260 338Q1260 223 1200 142T1034 19T793 -23Q756 -23 705 -16T621 0V156Q657 140 707 131T810 121Q915 121 965 169T1016 291Q1016 346 995 392T943 473T858 561Q803 613 771 650T716 737T693 846Q693 893 715 932T783 1028Q819
1072 842 1106T881 1184T897 1280Q897 1378 850 1429T713 1480Q563 1480 490 1361T416 994V0H51V109L184 128Z" />
<glyph unicode="&#xe0;" glyph-name="agrave" horiz-adv-x="1148" d="M755 743Q755 837 736 891T668 970T532 995Q363 995 176 900H175L125 1004Q152 1028 228 1066T402 1132T588 1161Q734 1161 817 1122T938 995T975 760V110H1097V12Q951 -23 877 -23Q835 -23
813 -16T781 12T770 79V127Q716 74 628 26T431 -23Q335 -23 257 12T132 120T85 302Q85 435 177 521T420 647T755 691V743ZM755 578Q608 578 514 545T377 456T334 331Q334 226 386 177T526 128Q573 128 639 154T755 219V578ZM368 1814H369L699 1408L617 1334H616Q572
1350 485 1415T316 1555T209 1675L368 1814Z" />
<glyph unicode="&#xe1;" glyph-name="aacute" horiz-adv-x="1148" d="M755 743Q755 837 736 891T668 970T532 995Q363 995 176 900H175L125 1004Q152 1028 228 1066T402 1132T588 1161Q734 1161 817 1122T938 995T975 760V110H1097V12Q951 -23 877 -23Q835 -23
813 -16T781 12T770 79V127Q716 74 628 26T431 -23Q335 -23 257 12T132 120T85 302Q85 435 177 521T420 647T755 691V743ZM755 578Q608 578 514 545T377 456T334 331Q334 226 386 177T526 128Q573 128 639 154T755 219V578ZM757 1814H758L917 1675Q891 1631 811
1557T643 1417T510 1334H508L427 1408L757 1814Z" />
<glyph unicode="&#xe2;" glyph-name="acircumflex" horiz-adv-x="1148" d="M755 743Q755 837 736 891T668 970T532 995Q363 995 176 900H175L125 1004Q152 1028 228 1066T402 1132T588 1161Q734 1161 817 1122T938 995T975 760V110H1097V12Q951 -23 877 -23Q835
-23 813 -16T781 12T770 79V127Q716 74 628 26T431 -23Q335 -23 257 12T132 120T85 302Q85 435 177 521T420 647T755 691V743ZM755 578Q608 578 514 545T377 456T334 331Q334 226 386 177T526 128Q573 128 639 154T755 219V578ZM473 1781H653L934 1383L844 1325L563
1606L267 1324L185 1382L473 1781Z" />
<glyph unicode="&#xe3;" glyph-name="atilde" horiz-adv-x="1148" d="M755 743Q755 837 736 891T668 970T532 995Q363 995 176 900H175L125 1004Q152 1028 228 1066T402 1132T588 1161Q734 1161 817 1122T938 995T975 760V110H1097V12Q951 -23 877 -23Q835 -23
813 -16T781 12T770 79V127Q716 74 628 26T431 -23Q335 -23 257 12T132 120T85 302Q85 435 177 521T420 647T755 691V743ZM755 578Q608 578 514 545T377 456T334 331Q334 226 386 177T526 128Q573 128 639 154T755 219V578ZM152 1496T192 1545T292 1628T424 1662Q466
1662 500 1649T559 1617T618 1567Q659 1530 686 1513T747 1496Q789 1496 818 1516T862 1557T895 1613L993 1551Q958 1459 891 1398T725 1336Q684 1336 650 1349T591 1380T531 1428Q488 1466 458 1484T389 1503Q348 1503 318 1483T272 1443T234 1386L137 1448Q152
1496 192 1545Z" />
<glyph unicode="&#xe4;" glyph-name="adieresis" horiz-adv-x="1148" d="M755 743Q755 837 736 891T668 970T532 995Q363 995 176 900H175L125 1004Q152 1028 228 1066T402 1132T588 1161Q734 1161 817 1122T938 995T975 760V110H1097V12Q951 -23 877 -23Q835
-23 813 -16T781 12T770 79V127Q716 74 628 26T431 -23Q335 -23 257 12T132 120T85 302Q85 435 177 521T420 647T755 691V743ZM755 578Q608 578 514 545T377 456T334 331Q334 226 386 177T526 128Q573 128 639 154T755 219V578ZM192 1559T230 1605T339 1652H340Q401
1652 436 1611T472 1514Q472 1444 433 1400T319 1355H318Q261 1355 227 1394T192 1492Q192 1559 230 1605ZM660 1559T698 1605T807 1652H808Q870 1652 905 1611T941 1514Q941 1444 902 1400T786 1355H785Q730 1355 695 1395T660 1492Q660 1559 698 1605Z" />
<glyph unicode="&#xe5;" glyph-name="aring" horiz-adv-x="1148" d="M755 743Q755 837 736 891T668 970T532 995Q363 995 176 900H175L125 1004Q152 1028 228 1066T402 1132T588 1161Q734 1161 817 1122T938 995T975 760V110H1097V12Q951 -23 877 -23Q835 -23
813 -16T781 12T770 79V127Q716 74 628 26T431 -23Q335 -23 257 12T132 120T85 302Q85 435 177 521T420 647T755 691V743ZM755 578Q608 578 514 545T377 456T334 331Q334 226 386 177T526 128Q573 128 639 154T755 219V578ZM228 1679T277 1742T405 1839T573 1872H574Q676
1872 748 1836T857 1737T894 1594Q894 1506 849 1442T727 1343T559 1309H558Q448 1309 374 1346T264 1447T228 1593Q228 1679 277 1742ZM656 1415T696 1457T737 1585Q737 1663 695 1713T566 1763H565Q476 1763 432 1720T387 1598Q387 1520 432 1468T564 1415H565Q656
1415 696 1457Z" />
<glyph unicode="&#xe6;" glyph-name="ae" horiz-adv-x="1781" d="M807 143T749 94T608 11T428 -23Q334 -23 256 12T130 120T83 301Q83 435 174 520T415 646T747 689V750Q747 844 729 896T664 973T529 997Q429 997 342 970T162 900L112 1002Q143 1029 221 1067T398
1133T585 1161Q720 1161 799 1127T918 1017Q989 1090 1084 1129T1291 1168Q1482 1168 1588 1064T1701 760Q1701 690 1699 644T1689 564H995Q999 417 1045 320T1166 177T1335 131Q1417 131 1504 159T1639 225L1681 129Q1643 90 1577 55T1429 -1T1267 -23Q1121 -23
1015 33T844 195Q807 143 749 94ZM1461 680Q1464 721 1464 766Q1463 893 1411 970T1247 1047Q1136 1047 1070 964T995 680H1461ZM754 410T754 571V574L747 579V581Q604 581 511 547T375 457T331 332Q331 225 382 177T521 128Q579 128 635 152T734 214T800 287Q754
410 754 571Z" />
<glyph unicode="&#xe7;" glyph-name="ccedilla" horiz-adv-x="1047" d="M926 73T831 30T632 -22Q674 -71 707 -140T740 -280Q740 -396 674 -445T476 -494H475Q440 -494 399 -487T331 -467L332 -314Q351 -321 377 -324T418 -328H419Q471 -328 500 -319T545 -279T561
-187Q561 -146 546 -100T511 -18Q369 1 272 79T126 280T77 554Q77 725 143 864T339 1086T653 1168Q797 1168 961 1106L951 798H812L766 985Q752 1018 711 1034T611 1050Q523 1050 458 1002T357 857T321 618Q321 453 364 344T481 183T648 131Q735 131 808 156T934
219L977 127Q926 73 831 30Z" />
<glyph unicode="&#xe8;" glyph-name="egrave" horiz-adv-x="1112" d="M85 747T154 883T345 1093T622 1168Q814 1168 919 1063T1031 760V724Q1031 619 1019 564H326Q330 417 376 320T497 177T666 131Q748 131 834 159T970 225L1012 129Q974 90 908 55T760 -1T598
-23Q430 -23 315 51T142 259T85 571Q85 747 154 883ZM791 680Q795 716 795 766Q794 893 742 970T578 1047Q466 1047 401 964T326 680H791ZM392 1814H393L723 1408L641 1334H640Q596 1350 509 1415T340 1555T233 1675L392 1814Z" />
<glyph unicode="&#xe9;" glyph-name="eacute" horiz-adv-x="1112" d="M781 1814H782L941 1675Q915 1631 835 1557T667 1417T534 1334H532L451 1408L781 1814ZM85 747T154 883T345 1093T622 1168Q814 1168 919 1063T1031 760V724Q1031 619 1019 564H326Q330 417
376 320T497 177T666 131Q748 131 834 159T970 225L1012 129Q974 90 908 55T760 -1T598 -23Q430 -23 315 51T142 259T85 571Q85 747 154 883ZM791 680Q795 716 795 766Q794 893 742 970T578 1047Q466 1047 401 964T326 680H791Z" />
<glyph unicode="&#xea;" glyph-name="ecircumflex" horiz-adv-x="1112" d="M496 1781H676L957 1383L867 1325L586 1606L290 1324L208 1382L496 1781ZM85 747T154 883T345 1093T622 1168Q814 1168 919 1063T1031 760V724Q1031 619 1019 564H326Q330 417 376 320T497
177T666 131Q748 131 834 159T970 225L1012 129Q974 90 908 55T760 -1T598 -23Q430 -23 315 51T142 259T85 571Q85 747 154 883ZM791 680Q795 716 795 766Q794 893 742 970T578 1047Q466 1047 401 964T326 680H791Z" />
<glyph unicode="&#xeb;" glyph-name="edieresis" horiz-adv-x="1112" d="M216 1559T254 1605T363 1652H364Q425 1652 460 1611T496 1514Q496 1444 457 1400T343 1355H342Q285 1355 251 1394T216 1492Q216 1559 254 1605ZM684 1559T722 1605T831 1652H832Q894 1652
929 1611T965 1514Q965 1444 926 1400T810 1355H809Q754 1355 719 1395T684 1492Q684 1559 722 1605ZM85 747T154 883T345 1093T622 1168Q814 1168 919 1063T1031 760V724Q1031 619 1019 564H326Q330 417 376 320T497 177T666 131Q748 131 834 159T970 225L1012
129Q974 90 908 55T760 -1T598 -23Q430 -23 315 51T142 259T85 571Q85 747 154 883ZM791 680Q795 716 795 766Q794 893 742 970T578 1047Q466 1047 401 964T326 680H791Z" />
<glyph unicode="&#xec;" glyph-name="igrave" horiz-adv-x="685" d="M240 126V964L95 1005V1123L413 1164H418L469 1125V126L629 109V0H78V109L240 126ZM400 1814H401L731 1408L649 1334H648Q604 1350 517 1415T348 1555T241 1675L400 1814Z" />
<glyph unicode="&#xed;" glyph-name="iacute" horiz-adv-x="685" d="M534 1814H535L694 1675Q668 1631 588 1557T420 1417T287 1334H285L204 1408L534 1814ZM240 126V964L95 1005V1123L413 1164H418L469 1125V126L629 109V0H78V109L240 126Z" />
<glyph unicode="&#xee;" glyph-name="icircumflex" horiz-adv-x="685" d="M249 1781H429L710 1383L620 1325L339 1606L43 1324L-39 1382L249 1781ZM240 126V964L95 1005V1123L413 1164H418L469 1125V126L629 109V0H78V109L240 126Z" />
<glyph unicode="&#xef;" glyph-name="idieresis" horiz-adv-x="685" d="M-30 1559T8 1605T117 1652H118Q179 1652 214 1611T250 1514Q250 1444 211 1400T97 1355H96Q39 1355 5 1394T-30 1492Q-30 1559 8 1605ZM438 1559T476 1605T585 1652H586Q648 1652 683 1611T719
1514Q719 1444 680 1400T564 1355H563Q508 1355 473 1395T438 1492Q438 1559 476 1605ZM240 126V964L95 1005V1123L413 1164H418L469 1125V126L629 109V0H78V109L240 126Z" />
<glyph unicode="&#xf0;" glyph-name="eth" horiz-adv-x="1189" d="M380 1592Q327 1627 266 1656T165 1697L209 1806Q282 1786 338 1762T463 1700Q506 1754 541 1799T588 1859L686 1778Q675 1765 643 1725T570 1637Q732 1527 854 1380T1046 1052T1115 666Q1115
490 1063 334T894 77T597 -23Q425 -23 309 48T136 244T79 535Q79 738 152 881T345 1096T607 1168Q706 1168 798 1131Q754 1242 671 1345T480 1521L347 1357L243 1431L380 1592ZM872 746T860 828T832 962Q806 998 751 1026T614 1055Q526 1055 462 997T363 826T329
556Q329 431 357 328T446 162T604 99Q741 99 806 235T872 644Q872 746 860 828Z" />
<glyph unicode="&#xf1;" glyph-name="ntilde" horiz-adv-x="1375" d="M233 126V964L90 1004V1124L386 1164H391L438 1125V1044L437 998Q483 1039 552 1077T701 1139T852 1163Q982 1163 1053 1115T1152 965T1180 691V126L1324 109V0H822V109L950 126V692Q950 808
935 874T876 974T749 1008Q677 1008 599 977T462 902V126L600 109V0H102V109L233 126ZM287 1496T327 1545T427 1628T559 1662Q601 1662 635 1649T694 1617T753 1567Q794 1530 821 1513T882 1496Q924 1496 953 1516T997 1557T1030 1613L1128 1551Q1093 1459 1026
1398T860 1336Q819 1336 785 1349T726 1380T666 1428Q623 1466 593 1484T524 1503Q483 1503 453 1483T407 1443T369 1386L272 1448Q287 1496 327 1545Z" />
<glyph unicode="&#xf2;" glyph-name="ograve" horiz-adv-x="1218" d="M795 1168T911 1091T1083 880T1139 572Q1139 387 1063 252T862 47T596 -23Q422 -23 307 54T135 265T79 573Q79 756 155 891T356 1097T621 1168Q795 1168 911 1091ZM886 779T820 911T609 1044Q471
1044 401 931T331 591Q331 366 398 234T609 101Q886 101 886 554Q886 779 820 911ZM420 1814H421L751 1408L669 1334H668Q624 1350 537 1415T368 1555T261 1675L420 1814Z" />
<glyph unicode="&#xf3;" glyph-name="oacute" horiz-adv-x="1218" d="M809 1814H810L969 1675Q943 1631 863 1557T695 1417T562 1334H560L479 1408L809 1814ZM795 1168T911 1091T1083 880T1139 572Q1139 387 1063 252T862 47T596 -23Q422 -23 307 54T135 265T79
573Q79 756 155 891T356 1097T621 1168Q795 1168 911 1091ZM886 779T820 911T609 1044Q471 1044 401 931T331 591Q331 366 398 234T609 101Q886 101 886 554Q886 779 820 911Z" />
<glyph unicode="&#xf4;" glyph-name="ocircumflex" horiz-adv-x="1218" d="M526 1781H706L987 1383L897 1325L616 1606L320 1324L238 1382L526 1781ZM795 1168T911 1091T1083 880T1139 572Q1139 387 1063 252T862 47T596 -23Q422 -23 307 54T135 265T79 573Q79
756 155 891T356 1097T621 1168Q795 1168 911 1091ZM886 779T820 911T609 1044Q471 1044 401 931T331 591Q331 366 398 234T609 101Q886 101 886 554Q886 779 820 911Z" />
<glyph unicode="&#xf5;" glyph-name="otilde" horiz-adv-x="1218" d="M795 1168T911 1091T1083 880T1139 572Q1139 387 1063 252T862 47T596 -23Q422 -23 307 54T135 265T79 573Q79 756 155 891T356 1097T621 1168Q795 1168 911 1091ZM886 779T820 911T609 1044Q471
1044 401 931T331 591Q331 366 398 234T609 101Q886 101 886 554Q886 779 820 911ZM204 1496T244 1545T344 1628T476 1662Q518 1662 552 1649T611 1617T670 1567Q711 1530 738 1513T799 1496Q841 1496 870 1516T914 1557T947 1613L1045 1551Q1010 1459 943 1398T777
1336Q736 1336 702 1349T643 1380T583 1428Q540 1466 510 1484T441 1503Q400 1503 370 1483T324 1443T286 1386L189 1448Q204 1496 244 1545Z" />
<glyph unicode="&#xf6;" glyph-name="odieresis" horiz-adv-x="1218" d="M245 1559T283 1605T392 1652H393Q454 1652 489 1611T525 1514Q525 1444 486 1400T372 1355H371Q314 1355 280 1394T245 1492Q245 1559 283 1605ZM713 1559T751 1605T860 1652H861Q923 1652
958 1611T994 1514Q994 1444 955 1400T839 1355H838Q783 1355 748 1395T713 1492Q713 1559 751 1605ZM795 1168T911 1091T1083 880T1139 572Q1139 387 1063 252T862 47T596 -23Q422 -23 307 54T135 265T79 573Q79 756 155 891T356 1097T621 1168Q795 1168 911 1091ZM886
779T820 911T609 1044Q471 1044 401 931T331 591Q331 366 398 234T609 101Q886 101 886 554Q886 779 820 911Z" />
<glyph unicode="&#xf7;" glyph-name="divide" horiz-adv-x="1362" d="M548 1059T571 1094T631 1150T710 1171Q779 1171 815 1133T851 1037Q851 991 829 957T768 903T686 884Q650 884 619 900T568 947T548 1016Q548 1059 571 1094ZM1147 695V534H215V695H1147ZM762
350T798 312T834 216Q834 170 812 135T752 81T669 61Q633 61 602 77T551 124T532 195Q532 238 555 273T615 329T694 350Q762 350 798 312Z" />
<glyph unicode="&#xf8;" glyph-name="oslash" horiz-adv-x="1218" d="M699 1168T769 1151L838 1346L934 1320L866 1116Q1003 1049 1071 906T1139 572Q1139 387 1063 252T862 47T596 -23Q522 -23 459 -8L380 -218L279 -189L359 25Q219 90 149 234T79 573Q79 756
155 891T356 1097T621 1168Q699 1168 769 1151ZM724 1014Q672 1044 609 1044Q471 1044 401 931T331 591Q331 456 355 352T431 184L724 1014ZM886 827T794 952L499 127Q546 101 609 101Q886 101 886 554Q886 827 794 952Z" />
<glyph unicode="&#xf9;" glyph-name="ugrave" horiz-adv-x="1307" d="M908 136Q844 74 746 26T548 -23Q423 -23 345 21T230 163T193 419V999L82 1036V1133L378 1163H379L421 1136V430Q421 316 438 252T498 159T622 129Q700 129 767 159T883 228V998L740 1037V1134L1056
1163H1058L1111 1136V113H1231V13Q1173 -4 1131 -13T1033 -23Q969 -23 939 1T908 84V136ZM453 1814H454L784 1408L702 1334H701Q657 1350 570 1415T401 1555T294 1675L453 1814Z" />
<glyph unicode="&#xfa;" glyph-name="uacute" horiz-adv-x="1307" d="M842 1814H843L1002 1675Q976 1631 896 1557T728 1417T595 1334H593L512 1408L842 1814ZM908 136Q844 74 746 26T548 -23Q423 -23 345 21T230 163T193 419V999L82 1036V1133L378 1163H379L421
1136V430Q421 316 438 252T498 159T622 129Q700 129 767 159T883 228V998L740 1037V1134L1056 1163H1058L1111 1136V113H1231V13Q1173 -4 1131 -13T1033 -23Q969 -23 939 1T908 84V136Z" />
<glyph unicode="&#xfb;" glyph-name="ucircumflex" horiz-adv-x="1307" d="M558 1781H738L1019 1383L929 1325L648 1606L352 1324L270 1382L558 1781ZM908 136Q844 74 746 26T548 -23Q423 -23 345 21T230 163T193 419V999L82 1036V1133L378 1163H379L421 1136V430Q421
316 438 252T498 159T622 129Q700 129 767 159T883 228V998L740 1037V1134L1056 1163H1058L1111 1136V113H1231V13Q1173 -4 1131 -13T1033 -23Q969 -23 939 1T908 84V136Z" />
<glyph unicode="&#xfc;" glyph-name="udieresis" horiz-adv-x="1307" d="M258 1559T296 1605T405 1652H406Q467 1652 502 1611T538 1514Q538 1444 499 1400T385 1355H384Q327 1355 293 1394T258 1492Q258 1559 296 1605ZM726 1559T764 1605T873 1652H874Q936 1652
971 1611T1007 1514Q1007 1444 968 1400T852 1355H851Q796 1355 761 1395T726 1492Q726 1559 764 1605ZM908 136Q844 74 746 26T548 -23Q423 -23 345 21T230 163T193 419V999L82 1036V1133L378 1163H379L421 1136V430Q421 316 438 252T498 159T622 129Q700 129
767 159T883 228V998L740 1037V1134L1056 1163H1058L1111 1136V113H1231V13Q1173 -4 1131 -13T1033 -23Q969 -23 939 1T908 84V136Z" />
<glyph unicode="&#xfd;" glyph-name="yacute" horiz-adv-x="1180" d="M146 -306Q158 -313 195 -318T265 -324Q325 -324 375 -300T478 -204T579 0H466L92 1005L-3 1031V1137H506V1031L349 1005L542 401L631 111L711 402L892 1006L758 1031V1137H1178V1031L1076
1006Q932 558 842 291T726 -34Q658 -206 598 -306T458 -458T263 -510Q232 -510 196 -506T146 -495V-306ZM816 1814H817L976 1675Q950 1631 870 1557T702 1417T569 1334H567L486 1408L816 1814Z" />
<glyph unicode="&#xfe;" glyph-name="thorn" horiz-adv-x="1242" d="M164 1522L-1 1542V1636L336 1679H341L391 1645V1034Q450 1092 532 1130T714 1168Q836 1168 937 1109T1099 925T1160 609Q1160 433 1088 289T882 61T568 -23Q480 -23 384 -9L390 -155V-371L601
-394V-496H14V-394L163 -371V63H164V1522ZM391 157Q404 127 458 110T583 92Q681 92 755 147T872 312T914 585Q914 729 877 825T773 967T622 1013Q550 1013 489 981T391 907V157Z" />
<glyph unicode="&#xff;" glyph-name="ydieresis" horiz-adv-x="1180" d="M146 -306Q158 -313 195 -318T265 -324Q325 -324 375 -300T478 -204T579 0H466L92 1005L-3 1031V1137H506V1031L349 1005L542 401L631 111L711 402L892 1006L758 1031V1137H1178V1031L1076
1006Q932 558 842 291T726 -34Q658 -206 598 -306T458 -458T263 -510Q232 -510 196 -506T146 -495V-306ZM251 1559T289 1605T398 1652H399Q460 1652 495 1611T531 1514Q531 1444 492 1400T378 1355H377Q320 1355 286 1394T251 1492Q251 1559 289 1605ZM719 1559T757
1605T866 1652H867Q929 1652 964 1611T1000 1514Q1000 1444 961 1400T845 1355H844Q789 1355 754 1395T719 1492Q719 1559 757 1605Z" />
<glyph unicode="&#x2013;" glyph-name="endash" horiz-adv-x="1607" d="M1377 697V533H230V697H1377Z" />
<glyph unicode="&#x2014;" glyph-name="emdash" horiz-adv-x="2467" d="M2237 697V534H230V697H2237Z" />
<glyph unicode="&#x2018;" glyph-name="quoteleft" horiz-adv-x="779" d="M220 1344T263 1452T366 1633T479 1735H481L543 1674V1650Q494 1611 452 1528T409 1321Q409 1276 420 1242T446 1184T486 1130Q516 1096 530 1069T545 1004Q545 946 512 913T427 880H426Q370
880 323 928T248 1054T220 1220Q220 1344 263 1452Z" />
<glyph unicode="&#x2019;" glyph-name="quoteright" horiz-adv-x="779" d="M557 1260T514 1152T411 971T298 869H296L234 930V954Q283 993 325 1076T368 1283Q368 1328 357 1362T331 1420T291 1474Q261 1508 247 1535T232 1600Q232 1658 265 1691T350 1724H351Q407
1724 454 1676T529 1550T557 1384Q557 1260 514 1152Z" />
<glyph unicode="&#x201a;" glyph-name="quotesinglbase" horiz-adv-x="779" d="M557 -124T514 -232T411 -413T298 -515H296L234 -454V-430Q283 -391 325 -308T368 -101Q368 -56 357 -22T331 36T291 90Q261 124 247 151T232 216Q232 274 265 307T350 340H351Q407
340 454 292T529 166T557 0Q557 -124 514 -232Z" />
<glyph unicode="&#x201c;" glyph-name="quotedblleft" horiz-adv-x="1314" d="M756 1344T799 1452T902 1633T1015 1735H1017L1079 1674V1650Q1030 1611 988 1528T945 1321Q945 1276 956 1242T982 1184T1022 1130Q1052 1096 1066 1069T1081 1004Q1081 946 1048
913T963 880H962Q906 880 859 928T784 1054T756 1220Q756 1344 799 1452ZM220 1344T263 1452T366 1633T479 1735H481L543 1674V1650Q494 1611 452 1528T409 1321Q409 1276 420 1242T446 1184T486 1130Q516 1096 530 1069T545 1004Q545 946 512 913T427 880H426Q370
880 323 928T248 1054T220 1220Q220 1344 263 1452Z" />
<glyph unicode="&#x201d;" glyph-name="quotedblright" horiz-adv-x="1313" d="M557 1270T514 1162T411 981T298 879H296L234 940V964Q283 1003 325 1086T368 1293Q368 1338 357 1372T331 1430T291 1484Q261 1518 247 1545T232 1610Q232 1668 265 1701T350 1734H351Q407
1734 454 1686T529 1560T557 1394Q557 1270 514 1162ZM1093 1270T1050 1162T947 981T834 879H832L770 940V964Q819 1003 861 1086T904 1293Q904 1338 893 1372T867 1430T827 1484Q797 1518 783 1545T768 1610Q768 1668 801 1701T886 1734H887Q943 1734 990 1686T1065
1560T1093 1394Q1093 1270 1050 1162Z" />
<glyph unicode="&#x201e;" glyph-name="quotedblbase" horiz-adv-x="1313" d="M557 -124T514 -232T411 -413T298 -515H296L234 -454V-430Q283 -391 325 -308T368 -101Q368 -56 357 -22T331 36T291 90Q261 124 247 151T232 216Q232 274 265 307T350 340H351Q407
340 454 292T529 166T557 0Q557 -124 514 -232ZM1093 -124T1050 -232T947 -413T834 -515H832L770 -454V-430Q819 -391 861 -308T904 -101Q904 -56 893 -22T867 36T827 90Q797 124 783 151T768 216Q768 274 801 307T886 340H887Q943 340 990 292T1065 166T1093 0Q1093
-124 1050 -232Z" />
<glyph unicode="&#x2022;" glyph-name="bullet" horiz-adv-x="848" d="M217 751T247 800T328 877T435 905Q491 905 535 878T606 802T632 691Q632 633 602 584T521 505T415 476Q360 476 315 505T243 584T217 691Q217 751 247 800Z" />
<glyph unicode="&#x2039;" glyph-name="guilsinglleft" horiz-adv-x="1189" d="M894 1127L960 1015L497 614L965 222L894 108L235 533V689L894 1127Z" />
<glyph unicode="&#x203a;" glyph-name="guilsinglright" horiz-adv-x="1189" d="M954 533L295 108L224 222L692 614L229 1015L295 1127L954 689V533Z" />
</font>
</defs>
</svg>
